百度云资源论坛

 找回密码
 立即注册
搜索
热搜: 百度云资源
开启左侧

瞰视加拿大 Helicopter.Canada.1966.1080p.BluRay.x264.FLAC.2.0-HANDJOB 4.14GB

[复制链接]
百度云资源 发表于 2022-6-23 16:04:03 | 显示全部楼层 |阅读模式
瞰视加拿大 Helicopter.Canada.1966.1080p.BluRay.x264.FLAC.2.0-HANDJOB 4.14GB                                                                                                                                                                                                                                                                                                                                                                                                                                                                                                                                        -->
帖子完整标题:瞰视加拿大 Helicopter.Canada.1966.1080p.BluRay.x264.FLAC.2.0-HANDJOB 4.14GB



a469d98e8ed326b6c6eee34ad67d8ba7.jpg



◎译  名 瞰视加拿大
◎片  名 Helicopter Canada
◎年  代 1969
◎产  地 加拿大
◎类  别 纪录片
◎IMDb链接 
◎豆瓣链接 
◎片  长 50分钟
◎演  员 彼得·琼斯 Peter Jones (id:1329675)

◎获奖情况 (共1项)
  第39届奥斯卡金像奖 (1967)
  最佳纪录长片(提名)

Video
ID                                       : 1
Format                                   : AVC
Format/Info                              : Advanced Video Codec
Format profile                           :
Format settings                          : CABAC / 5 Ref Frames
Format settings, CABAC                   : Yes
Format settings, Reference frames        : 5 frames
Codec ID                                 : V_MPEG4/ISO/AVC
Duration                                 : 50 min 10 s
Bit rate                                 : 11.4 Mb/s
Width                                    : 1 920 pixels
Height                                   : 820 pixels
Display aspect ratio                     : 2.35:1
Frame rate mode                          : Constant
Frame rate                               : 23.976 (24000/1001/189150) FPS
Color space                              : YUV
Chroma subsampling                       : 4:2:0
Bit depth                                : 8 bits
Scan type                                : Progressive
Bits/(Pixel*Frame)                       : 0.302
Stream size                              : 3.99 GiB (97%)
Writing library                          : x264 core 164 r3065 ae03d92
Encoding settings                        : cabac=1 / ref=5 / deblock=1:-3:-3 / analyse=0x3:0x133 / me=tesa / subme=10 / psy=1 / psy_rd=1.00:0.00 / mixed_ref=1 / me_range=16 / chroma_me=1 / trellis=2 / 8x8dct=1 / cqm=0 / deadzone=21,11 / fast_pskip=0 / chroma_qp_offset=-2 / threads=26 / lookahead_threads=6 / sliced_threads=0 / nr=0 / decimate=0 / interlaced=0 / bluray_compat=0 / constrained_intra=0 / bframes=16 / b_pyramid=2 / b_adapt=2 / b_bias=0 / direct=3 / weightb=1 / open_gop=0 / weightp=2 / keyint=240 / keyint_min=24 / scenecut=40 / intra_refresh=0 / rc_lookahead=60 / rc=crf / mbtree=0 / crf=22.0 / qcomp=0.60 / qpmin=0 / qpmax=69 / qpstep=4 / vbv_maxrate=62500 / vbv_bufsize=78125 / crf_max=0.0 / nal_hrd=none / filler=0 / ip_ratio=1.40 / pb_ratio=1.30 / aq=2:1.00
Default                                  : Yes
Forced                                   : No
Color range                              : Limited
Color primaries                          : BT.709
Transfer characteristics                 : BT.709
Matrix coefficients                      : BT.709

Audio
ID                                       : 2
Format                                   : FLAC
Format/Info                              : Free Lossless Audio Codec
Codec ID                                 : A_FLAC
Duration                                 : 50 min 9 s
Bit rate mode                            : Variable
Bit rate                                 : 406 kb/s
Channel(s)                               : 2 channels
Channel layout                           : L R
Sampling rate                            : 48.0 kHz
Frame rate                               : 11.719 FPS (4096 SPF)
Bit depth                                : 16 bits
Compression mode                         : Lossless
Stream size                              : 146 MiB (3%)
Writing library                          : libFLAC 1.3.4 (UTC 2022-02-20)
Language                                 : English
Default                                  : Yes
Forced                                   : No

Text
ID                                       : 3
Format                                   : UTF-8
Codec ID                                 : S_TEXT/UTF8
Codec ID/Info                            : UTF-8 Plain Text
Duration                                 : 49 min 23 s
Bit rate                                 : 57 b/s
Count of elements                        : 613
Stream size                              : 20.7 KiB (0%)
Language                                 : English
Default                                  : No
Forced                                   : No

Menu
00:00:00.000                             : :Chapter 1
00:10:57.115                             : :Chapter 2
00:19:49.939                             : :Chapter 3
00:27:32.025                             : :Chapter 4
00:35:58.406                             : :Chapter 5
00:41:20.061                             : :Chapter 6

c88e67aa01ae0419d110048ef9cb03c9.png

[/url]



                                                                                                                                                                                                        
                                                                                                                                                                                                                                                                                                                                                                                                                                                                                                                                                                                                                                                                                                                                                                                                                                                        
285de92f13fc95e15f057029071a43c5.torrent (21.31 KB, 下载次数: 0)

回复

使用道具 举报

小黑屋|百度云资源论坛 ( 闽ICP备16005822号-1 )

本网站所有资源来自网络,如无意中侵犯了您的权益,请发邮件至 [email protected],立即清除相关链接

GMT+8, 2022-8-8 10:20 , Processed in 0.080701 second(s), 17 queries .

Powered by Discuz! X3.4

© 2001-2017 Comsenz Inc.

快速回复 返回顶部 返回列表