百度云资源论坛

 找回密码
 立即注册
搜索
热搜: 百度云资源
开启左侧

天使飞轮 Angels.Hard.as.They.Come.1971.1080p.BluRay.x264.DTS-FGT 7.87GB

[复制链接]
百度云资源 发表于 2022-6-23 16:04:05 | 显示全部楼层 |阅读模式
天使飞轮 Angels.Hard.as.They.Come.1971.1080p.BluRay.x264.DTS-FGT 7.87GB                                                                                                                                                                                                                                                                                                                                                                                                                                                                                                                                        -->
帖子完整标题:天使飞轮 Angels.Hard.as.They.Come.1971.1080p.BluRay.x264.DTS-FGT 7.87GB



90bfb6225e5749734ec01c4582a3a25f.jpg



◎译  名 天使飞轮
◎片  名 Angels Hard as They Come
◎年  代 1971
◎产  地 美国
◎类  别 剧情 / 动作
◎语  言 英语
◎IMDb链接 
◎豆瓣链接 
◎片  长 85 分钟
◎编  剧 乔纳森·戴米 Jonathan Demme (id:1032064)
◎演  员 斯科特·格伦 Scott Glenn (id:1007019)
       Charles Dierkop Charles Dierkop (id:1090736)
       詹姆斯·伊格尔哈特 James Iglehart (id:1343864)
       加里·布塞 Gary Busey (id:1010573)
       拉里·塔克 Larry Tucker (id:1010862)
        Dirty Denny (id:1224287)
       Marc Seaton Marc Seaton (id:1145970)
       Jim Morris Jim Morris (id:1131853)
       Sharon Peckinpah Sharon Peckinpah (id:1128361)
       Gilda Texter Gilda Texter (id:1036952)
       罗杰·科曼 Roger Corman (id:1002780)
       乔纳森·戴米 Jonathan Demme (id:1032064)
       杰克·菲斯克 Jack Fisk (id:1036807)
Video
ID                                       : 1
Format                                   : AVC
Format/Info                              : Advanced Video Codec
Format profile                           :
Format settings                          : CABAC / 4 Ref Frames
Format settings, CABAC                   : Yes
Format settings, Reference frames        : 4 frames
Codec ID                                 : V_MPEG4/ISO/AVC
Duration                                 : 1 h 26 min
Bit rate                                 : 11.5 Mb/s
Width                                    : 1 920 pixels
Height                                   : 804 pixels
Display aspect ratio                     : 2.40:1
Frame rate mode                          : Constant
Frame rate                               : 23.976 (24000/1001/189150) FPS
Color space                              : YUV
Chroma subsampling                       : 4:2:0
Bit depth                                : 8 bits
Scan type                                : Progressive
Bits/(Pixel*Frame)                       : 0.311
Stream size                              : 6.95 GiB (88%)
Writing library                          : x264 core 148 r2795M aaa9aa8
Encoding settings                        : cabac=1 / ref=4 / deblock=1:-2:-2 / analyse=0x3:0x113 / me=umh / subme=9 / psy=1 / psy_rd=1.00:0.15 / mixed_ref=1 / me_range=16 / chroma_me=1 / trellis=2 / 8x8dct=1 / cqm=0 / deadzone=21,11 / fast_pskip=1 / chroma_qp_offset=-3 / threads=24 / lookahead_threads=3 / sliced_threads=0 / nr=0 / decimate=1 / interlaced=0 / bluray_compat=0 / constrained_intra=0 / bframes=3 / b_pyramid=2 / b_adapt=1 / b_bias=0 / direct=3 / weightb=1 / open_gop=0 / weightp=2 / keyint=250 / keyint_min=25 / scenecut=40 / intra_refresh=0 / rc_lookahead=50 / rc=2pass / mbtree=1 / bitrate=11500 / ratetol=1.0 / qcomp=0.60 / qpmin=0 / qpmax=69 / qpstep=4 / cplxblur=20.0 / qblur=0.5 / vbv_maxrate=31250 / vbv_bufsize=31250 / nal_hrd=none / filler=0 / ip_ratio=1.40 / aq=1:1.00
Language                                 : English
Default                                  : Yes
Forced                                   : No

Audio
ID                                       : 2
ID in the original source medium         : 4352 (0x1100)
Format                                   : DTS
Format/Info                              : Digital Theater Systems
Codec ID                                 : A_DTS
Duration                                 : 1 h 26 min
Bit rate mode                            : Constant
Bit rate                                 : 1 509 kb/s
Channel(s)                               : 2 channels
Channel layout                           : L R
Sampling rate                            : 48.0 kHz
Frame rate                               : 93.750 FPS (512 SPF)
Bit depth                                : 24 bits
Compression mode                         : Lossy
Stream size                              : 935 MiB (12%)
Title                                    : Stereo
Language                                 : English
Default                                  : No
Forced                                   : No
Original source medium                   : Blu-ray

Text #1
ID                                       : 3
Format                                   : UTF-8
Codec ID                                 : S_TEXT/UTF8
Codec ID/Info                            : UTF-8 Plain Text
Duration                                 : 1 h 24 min
Bit rate                                 : 54 b/s
Count of elements                        : 1155
Stream size                              : 33.3 KiB (0%)
Language                                 : English
Default                                  : Yes
Forced                                   : No

Text #2
ID                                       : 4
Format                                   : UTF-8
Codec ID                                 : S_TEXT/UTF8
Codec ID/Info                            : UTF-8 Plain Text
Duration                                 : 1 h 26 min
Bit rate                                 : 63 b/s
Count of elements                        : 1398
Stream size                              : 39.9 KiB (0%)
Title                                    : SDH
Language                                 : English
Default                                  : No
Forced                                   : No

Menu
00:00:00.000                             : en:Chapter 01
00:06:54.914                             : en:Chapter 02
00:15:00.649                             : en:Chapter 03
00:22:31.350                             : en:Chapter 04
00:31:17.667                             : en:Chapter 05
00:38:43.070                             : en:Chapter 06
00:47:30.305                             : en:Chapter 07
00:56:01.608                             : en:Chapter 08
01:05:13.200                             : en:Chapter 09
01:11:57.855                             : en:Chapter 10
01:17:44.159                             : en:Chapter 11
01:23:30.714                             : en:Chapter 12

e4b63cbe032ad188e963f83d4f22d5f1.png

[/url]8651186cb4a30e5c7f982e1aece48d6c.png

[/url]27e28ea4a9254a8b03df4ccbb5b74af0.png

[/url]



                                                                                                                                                                                                        
                                                                                                                                                                                                                                                                                                                                                                                                                                                                                                                                                                                                                                                                                                                                                                                                                                                        
79e26a6405dcdd101d3ad9f1578e50ea.torrent (20.31 KB, 下载次数: 0)

回复

使用道具 举报

小黑屋|百度云资源论坛 ( 闽ICP备16005822号-1 )

本网站所有资源来自网络,如无意中侵犯了您的权益,请发邮件至 [email protected],立即清除相关链接

GMT+8, 2022-8-8 08:59 , Processed in 0.070032 second(s), 17 queries .

Powered by Discuz! X3.4

© 2001-2017 Comsenz Inc.

快速回复 返回顶部 返回列表