百度云资源论坛

 找回密码
 立即注册
搜索
热搜: 百度云资源
开启左侧

斯图神父 Father.Stu.2022.1080p.BluRay.x264-PiGNUS 7.98GB

[复制链接]
百度云资源 发表于 2022-6-23 16:04:09 | 显示全部楼层 |阅读模式
斯图神父 Father.Stu.2022.1080p.BluRay.x264-PiGNUS 7.98GB                                                                                                                                                                                                                                                                                                                                                                                                                                                                                                                                        -->
帖子完整标题:斯图神父 Father.Stu.2022.1080p.BluRay.x264-PiGNUS 7.98GB



f7f8e86119d312719493e41c65c9801e.jpg



◎译  名 斯图神父 / 斯图
◎片  名 Father Stu
◎年  代 2022
◎产  地 美国
◎类  别 剧情 / 传记
◎语  言 英语
◎上映日期 2022-04-13(加拿大) / 2022-04-15(美国)
◎IMDb链接 
◎豆瓣评分 6.5/10 (677人评价)
◎豆瓣链接 
◎片  长 124分钟
◎导  演 罗莎琳德·罗斯 Rosalind Ross (id:1405423)
◎编  剧 罗莎琳德·罗斯 Rosalind Ross (id:1405423)
◎演  员 梅尔·吉布森 Mel Gibson (id:1054530)
       马克·沃尔伯格 Mark Wahlberg (id:1035674)
       杰基·韦佛 Jacki Weaver (id:1161151)
       安内特·莫翰德鲁 Annet Mahendru (id:1328987)
       特蕾莎·鲁伊斯 Teresa Ruiz (id:1404972)
       雯特·艾娃·佐莉 Winter Ave Zoli (id:1335423)
       阿兰·乌伊 Alain Uy (id:1418057)
       耐德·巴拉米 Ned Bellamy (id:1048233)
       罗尼·吉恩·贝尔维斯 Ronnie Gene Blevins (id:1018380)
       尼科·尼科特拉 Niko Nicotera (id:1402941)
       迈克尔·费尔曼 Michael Fairman (id:1032368)
       卡洛斯·李尔 Carlos Leal (id:1352500)
       安妮·李 Annie Lee (id:1042062)
       博·克利里 Bo Cleary (id:1387223)
       文森特·M·比肖内 Vincent M. Biscione (id:1001724)
       马克·卡西米尔·戴妮奇斯 Mark Casimir Dyniewicz (id:1254429)
       詹姆斯·亨特 James Hunter (id:1110968)
       约翰尼·曼斯巴赫 Johnny Mansbach (id:1243151)

◎简  介
  拳击手斯图尔特(马克·沃尔伯格 饰)因受伤而结束了他的职业生涯。从一场死亡车祸幸存后,他决定把握生命第二次机会,立志做一名牧师。                                    
                                根据真实人物故事改编。
Video
ID                                       : 1
Format                                   : AVC
Format/Info                              : Advanced Video Codec
Format profile                           :
Format settings                          : CABAC / 5 Ref Frames
Format settings, CABAC                   : Yes
Format settings, Reference frames        : 5 frames
Codec ID                                 : V_MPEG4/ISO/AVC
Duration                                 : 2 h 4 min
Bit rate                                 : 6 850 kb/s
Width                                    : 1 920 pixels
Height                                   : 804 pixels
Display aspect ratio                     : 2.40:1
Frame rate mode                          : Constant
Frame rate                               : 23.976 (24000/1001/189150) FPS
Color space                              : YUV
Chroma subsampling                       : 4:2:0
Bit depth                                : 8 bits
Scan type                                : Progressive
Bits/(Pixel*Frame)                       : 0.185
Stream size                              : 5.96 GiB (75%)
Writing library                          : x264 core 164 r3095 baee400
Encoding settings                        : cabac=1 / ref=5 / deblock=1:-3:-3 / analyse=0x3:0x133 / me=umh / subme=9 / psy=1 / psy_rd=1.00:0.00 / mixed_ref=1 / me_range=16 / chroma_me=1 / trellis=2 / 8x8dct=1 / cqm=0 / deadzone=21,11 / fast_pskip=1 / chroma_qp_offset=-2 / threads=25 / lookahead_threads=2 / sliced_threads=0 / nr=0 / decimate=1 / interlaced=0 / bluray_compat=0 / constrained_intra=0 / bframes=3 / b_pyramid=2 / b_adapt=2 / b_bias=0 / direct=3 / weightb=1 / open_gop=0 / weightp=2 / keyint=250 / keyint_min=23 / scenecut=40 / intra_refresh=0 / rc_lookahead=60 / rc=crf / mbtree=1 / crf=14.5 / qcomp=0.60 / qpmin=0 / qpmax=69 / qpstep=4 / ip_ratio=1.40 / aq=1:1.00
Default                                  : Yes
Forced                                   : No

Audio
ID                                       : 2
Format                                   : DTS XLL
Format/Info                              : Digital Theater Systems
Commercial name                          : DTS-HD Master Audio
Codec ID                                 : A_DTS
Duration                                 : 2 h 4 min
Bit rate mode                            : Variable
Bit rate                                 : 2 140 kb/s
Channel(s)                               : 6 channels
Channel layout                           : C L R Ls Rs LFE
Sampling rate                            : 48.0 kHz
Frame rate                               : 93.750 FPS (512 SPF)
Bit depth                                : 16 bits
Compression mode                         : Lossless
Stream size                              : 1.86 GiB (23%)
Language                                 : English
Default                                  : Yes
Forced                                   : No

Text #1
ID                                       : 3
Format                                   : PGS
Muxing mode                              : zlib
Codec ID                                 : S_HDMV/PGS
Codec ID/Info                            : Picture based subtitle format used on BDs/HD-DVDs
Duration                                 : 2 h 2 min
Bit rate                                 : 43.3 kb/s
Count of elements                        : 3665
Stream size                              : 37.9 MiB (0%)
Title                                    : English SDH
Language                                 : English
Default                                  : No
Forced                                   : No

Text #2
ID                                       : 4
Format                                   : PGS
Muxing mode                              : zlib
Codec ID                                 : S_HDMV/PGS
Codec ID/Info                            : Picture based subtitle format used on BDs/HD-DVDs
Duration                                 : 2 h 0 min
Bit rate                                 : 36.9 kb/s
Count of elements                        : 3110
Stream size                              : 31.9 MiB (0%)
Title                                    : English
Language                                 : English
Default                                  : No
Forced                                   : No

Text #3
ID                                       : 5
Format                                   : PGS
Muxing mode                              : zlib
Codec ID                                 : S_HDMV/PGS
Codec ID/Info                            : Picture based subtitle format used on BDs/HD-DVDs
Duration                                 : 2 h 3 min
Bit rate                                 : 32.1 kb/s
Count of elements                        : 3164
Stream size                              : 28.3 MiB (0%)
Title                                    : Chinese
Language                                 : Chinese
Default                                  : No
Forced                                   : No

Text #4
ID                                       : 6
Format                                   : PGS
Muxing mode                              : zlib
Codec ID                                 : S_HDMV/PGS
Codec ID/Info                            : Picture based subtitle format used on BDs/HD-DVDs
Duration                                 : 2 h 3 min
Bit rate                                 : 31.2 kb/s
Count of elements                        : 3164
Stream size                              : 27.5 MiB (0%)
Title                                    : Chinese
Language                                 : Chinese
Default                                  : No
Forced                                   : No

Text #5
ID                                       : 7
Format                                   : PGS
Muxing mode                              : zlib
Codec ID                                 : S_HDMV/PGS
Codec ID/Info                            : Picture based subtitle format used on BDs/HD-DVDs
Duration                                 : 2 h 3 min
Bit rate                                 : 34.6 kb/s
Count of elements                        : 3142
Stream size                              : 30.4 MiB (0%)
Title                                    : French
Language                                 : French
Default                                  : No
Forced                                   : No

Text #6
ID                                       : 8
Format                                   : PGS
Muxing mode                              : zlib
Codec ID                                 : S_HDMV/PGS
Codec ID/Info                            : Picture based subtitle format used on BDs/HD-DVDs
Duration                                 : 2 h 3 min
Bit rate                                 : 27.6 kb/s
Count of elements                        : 3302
Stream size                              : 24.3 MiB (0%)
Title                                    : Korean
Language                                 : Korean
Default                                  : No
Forced                                   : No

Text #7
ID                                       : 9
Format                                   : PGS
Muxing mode                              : zlib
Codec ID                                 : S_HDMV/PGS
Codec ID/Info                            : Picture based subtitle format used on BDs/HD-DVDs
Duration                                 : 2 h 3 min
Bit rate                                 : 34.1 kb/s
Count of elements                        : 3110
Stream size                              : 30.0 MiB (0%)
Title                                    : Portuguese
Language                                 : Portuguese
Default                                  : No
Forced                                   : No

Text #8
ID                                       : 10
Format                                   : PGS
Muxing mode                              : zlib
Codec ID                                 : S_HDMV/PGS
Codec ID/Info                            : Picture based subtitle format used on BDs/HD-DVDs
Duration                                 : 2 h 3 min
Bit rate                                 : 32.2 kb/s
Count of elements                        : 3234
Stream size                              : 28.4 MiB (0%)
Title                                    : Spanish
Language                                 : Spanish
Default                                  : No
Forced                                   : No

Text #9
ID                                       : 11
Format                                   : PGS
Muxing mode                              : zlib
Codec ID                                 : S_HDMV/PGS
Codec ID/Info                            : Picture based subtitle format used on BDs/HD-DVDs
Duration                                 : 2 h 3 min
Bit rate                                 : 39.5 kb/s
Count of elements                        : 3164
Stream size                              : 34.8 MiB (0%)
Title                                    : Thai
Language                                 : Thai
Default                                  : No
Forced                                   : No

Menu
00:00:00.000                             : en:Chapter 01
00:09:14.637                             : en:Chapter 02
00:17:31.676                             : en:Chapter 03
00:20:25.558                             : en:Chapter 04
00:26:13.030                             : en:Chapter 05
00:34:10.840                             : en:Chapter 06
00:49:55.492                             : en:Chapter 07
01:01:30.812                             : en:Chapter 08
01:06:45.752                             : en:Chapter 09
01:11:32.246                             : en:Chapter 10
01:15:28.649                             : en:Chapter 11
01:19:47.950                             : en:Chapter 12
01:24:26.436                             : en:Chapter 13
01:31:17.263                             : en:Chapter 14
01:39:43.019                             : en:Chapter 15
01:50:27.871                             : en:Chapter 16





                                                                                                                                                                                                        
                                                                                                                                                                                                                                                                                                                                                                                                                                                                                                                                                                                                                                                                                                                                                                                                                                                        
9a083423dc4d31e4777aea2954478914.torrent (20.67 KB, 下载次数: 0)

回复

使用道具 举报

小黑屋|百度云资源论坛 ( 闽ICP备16005822号-1 )

本网站所有资源来自网络,如无意中侵犯了您的权益,请发邮件至 [email protected],立即清除相关链接

GMT+8, 2022-8-10 03:19 , Processed in 0.074531 second(s), 17 queries .

Powered by Discuz! X3.4

© 2001-2017 Comsenz Inc.

快速回复 返回顶部 返回列表