百度云资源论坛

 找回密码
 立即注册
搜索
热搜: 百度云资源
开启左侧

无限风暴 Infinite.Storm.2022.1080p.BluRay.x264-PiGNUS 9.67GB

[复制链接]
百度云资源 发表于 2022-6-23 16:04:11 | 显示全部楼层 |阅读模式
无限风暴 Infinite.Storm.2022.1080p.BluRay.x264-PiGNUS 9.67GB                                                                                                                                                                                                                                                                                                                                                                                                                                                                                                                                        -->
帖子完整标题:无限风暴 Infinite.Storm.2022.1080p.BluRay.x264-PiGNUS 9.67GB



0c30c2b3aad926abe2349c32f3bfecac.jpg



◎译  名 无限风暴
◎片  名 Infinite Storm
◎年  代 2022
◎产  地 英国 / 波兰 / 澳大利亚
◎类  别 剧情 / 惊悚
◎语  言 英语
◎上映日期 2022-03-25(美国)
◎IMDb链接 
◎豆瓣评分 5.9/10 (1198人评价)
◎豆瓣链接 
◎片  长 97分钟
◎导  演 玛高扎塔·施莫夫兹卡 Malgorzata Szumowska (id:1033346)
◎编  剧 约书亚·罗林斯 Joshua Rollins (id:1251980)
       帕姆·巴勒斯 Pam Bales (id:1469369)
◎演  员 娜奥米·沃茨 Naomi Watts (id:1016675)
       丹尼斯·欧哈拉 Denis O'Hare (id:1013900)
       比利·豪尔 Billy Howle (id:1345504)
       可可·萨姆纳 Coco Sumner (id:1023168)
       帕克·索耶 Parker Sawyers (id:1349433)
       约书亚·罗林斯 Joshua Rollins (id:1251980)

◎简  介
  影片根据泰·加涅发表的的文章《高处:雪地里的脚印引发了一场温情救援》(High Places: Footprints i n the Snow Lead to an Emotional Rescue,暂译)改编,讲述了母亲、护士兼登山爱好者帕姆·贝尔斯的故事,当她独自跋涉华盛顿山,被暴风雪困住时,她遇到了陌生的登山者并为其展开了一场大胆的营救。
Video
ID                                       : 1
Format                                   : AVC
Format/Info                              : Advanced Video Codec
Format profile                           :
Format settings                          : CABAC / 5 Ref Frames
Format settings, CABAC                   : Yes
Format settings, Reference frames        : 5 frames
Codec ID                                 : V_MPEG4/ISO/AVC
Duration                                 : 1 h 37 min
Bit rate                                 : 10.6 Mb/s
Width                                    : 1 920 pixels
Height                                   : 800 pixels
Display aspect ratio                     : 2.40:1
Frame rate mode                          : Constant
Frame rate                               : 23.976 (24000/1001/189150) FPS
Color space                              : YUV
Chroma subsampling                       : 4:2:0
Bit depth                                : 8 bits
Scan type                                : Progressive
Bits/(Pixel*Frame)                       : 0.287
Stream size                              : 7.21 GiB (75%)
Writing library                          : x264 core 164 r3095 baee400
Encoding settings                        : cabac=1 / ref=5 / deblock=1:-3:-3 / analyse=0x3:0x133 / me=umh / subme=9 / psy=1 / psy_rd=1.00:0.00 / mixed_ref=1 / me_range=16 / chroma_me=1 / trellis=2 / 8x8dct=1 / cqm=0 / deadzone=21,11 / fast_pskip=1 / chroma_qp_offset=-2 / threads=25 / lookahead_threads=2 / sliced_threads=0 / nr=0 / decimate=1 / interlaced=0 / bluray_compat=0 / constrained_intra=0 / bframes=3 / b_pyramid=2 / b_adapt=2 / b_bias=0 / direct=3 / weightb=1 / open_gop=0 / weightp=2 / keyint=250 / keyint_min=23 / scenecut=40 / intra_refresh=0 / rc_lookahead=60 / rc=crf / mbtree=1 / crf=15.5 / qcomp=0.60 / qpmin=0 / qpmax=69 / qpstep=4 / ip_ratio=1.40 / aq=1:1.00
Default                                  : Yes
Forced                                   : No

Audio
ID                                       : 2
Format                                   : DTS XLL
Format/Info                              : Digital Theater Systems
Commercial name                          : DTS-HD Master Audio
Codec ID                                 : A_DTS
Duration                                 : 1 h 37 min
Bit rate mode                            : Variable
Bit rate                                 : 3 603 kb/s
Channel(s)                               : 6 channels
Channel layout                           : C L R Ls Rs LFE
Sampling rate                            : 48.0 kHz
Frame rate                               : 93.750 FPS (512 SPF)
Bit depth                                : 24 bits
Compression mode                         : Lossless
Stream size                              : 2.46 GiB (25%)
Language                                 : English
Default                                  : Yes
Forced                                   : No

Text #1
ID                                       : 3
Format                                   : PGS
Muxing mode                              : zlib
Codec ID                                 : S_HDMV/PGS
Codec ID/Info                            : Picture based subtitle format used on BDs/HD-DVDs
Duration                                 : 1 h 31 min
Bit rate                                 : 10.5 kb/s
Count of elements                        : 1398
Stream size                              : 6.86 MiB (0%)
Title                                    : English SDH
Language                                 : English
Default                                  : No
Forced                                   : No

Text #2
ID                                       : 4
Format                                   : PGS
Muxing mode                              : zlib
Codec ID                                 : S_HDMV/PGS
Codec ID/Info                            : Picture based subtitle format used on BDs/HD-DVDs
Duration                                 : 1 h 35 min
Bit rate                                 : 7 826 b/s
Count of elements                        : 1038
Stream size                              : 5.35 MiB (0%)
Title                                    : Spanish
Language                                 : Spanish
Default                                  : No
Forced                                   : No

Menu
00:00:00.000                             : en:Chapter 01
00:10:59.033                             : en:Chapter 02
00:24:35.766                             : en:Chapter 03
00:34:41.663                             : en:Chapter 04
00:49:35.055                             : en:Chapter 05
01:01:04.619                             : en:Chapter 06
01:14:03.939                             : en:Chapter 07
01:31:59.305                             : en:Chapter 08
01:37:33.765                             : en:Chapter 09

17ae8f1e07b61876d53f2835ece13a82.jpg





                                                                                                                                                                                                        
                                                                                                                                                                                                                                                                                                                                                                                                                                                                                                                                                                                                                                                                                                                                                                                                                                                        
d86bacdb184e774ef22d56f1ac277b63.torrent (24.9 KB, 下载次数: 0)

回复

使用道具 举报

小黑屋|百度云资源论坛 ( 闽ICP备16005822号-1 )

本网站所有资源来自网络,如无意中侵犯了您的权益,请发邮件至 [email protected],立即清除相关链接

GMT+8, 2022-8-8 09:22 , Processed in 0.080210 second(s), 17 queries .

Powered by Discuz! X3.4

© 2001-2017 Comsenz Inc.

快速回复 返回顶部 返回列表