百度云资源论坛

 找回密码
 立即注册
搜索
热搜: 百度云资源
开启左侧

迷幻牧师 The.Psychedelic.Priest.2001.1080p.BluRay.x264-GAZER 7.64GB

[复制链接]
百度云资源 发表于 2022-6-23 16:04:13 | 显示全部楼层 |阅读模式
迷幻牧师 The.Psychedelic.Priest.2001.1080p.BluRay.x264-GAZER 7.64GB                                                                                                                                                                                                                                                                                                                                                                                                                                                                                                                                        -->
帖子完整标题:迷幻牧师 The.Psychedelic.Priest.2001.1080p.BluRay.x264-GAZER 7.64GB



d88656df8dceb805a8b6ffc0be5d7483.jpg



◎译  名 迷幻牧师 / The Psychedelic Priest
◎片  名 Electric Shades of Grey
◎年  代 2001
◎产  地 美国
◎类  别 剧情
◎语  言 英语
◎IMDb链接 
◎豆瓣链接 
◎片  长 80分钟
◎导  演 Terry Merrill Terry Merrill (id:1181754)
       威廉·格雷菲 William Grefe (id:1048541)
◎编  剧 Terry Merrill Terry Merrill (id:1181754)
◎演  员 Chubby Jackson Chubby Jackson (id:1113092)
       Ken Keckler Ken Keckler (id:1195951)
       Ronald Sinclair Ronald Sinclair (id:1008161)
       威廉·格雷菲 William Grefe (id:1048541)
Video
ID                                       : 1
Format                                   : AVC
Format/Info                              : Advanced Video Codec
Format profile                           :
Format settings                          : CABAC / 5 Ref Frames
Format settings, CABAC                   : Yes
Format settings, Reference frames        : 5 frames
Codec ID                                 : V_MPEG4/ISO/AVC
Duration                                 : 1 h 20 min
Bit rate                                 : 12.7 Mb/s
Width                                    : 1 440 pixels
Height                                   : 1 080 pixels
Display aspect ratio                     : 4:3
Frame rate mode                          : Constant
Frame rate                               : 23.976 (24000/1001/189150) FPS
Color space                              : YUV
Chroma subsampling                       : 4:2:0
Bit depth                                : 8 bits
Scan type                                : Progressive
Bits/(Pixel*Frame)                       : 0.341
Stream size                              : 7.16 GiB (94%)
Writing library                          : x264 core 164 r3094 bfc87b7
Encoding settings                        : cabac=1 / ref=5 / deblock=1:-3:-3 / analyse=0x3:0x133 / me=umh / subme=10 / psy=1 / psy_rd=1.20:0.00 / mixed_ref=1 / me_range=24 / chroma_me=1 / trellis=2 / 8x8dct=1 / cqm=0 / deadzone=21,11 / fast_pskip=0 / chroma_qp_offset=-2 / threads=24 / lookahead_threads=4 / sliced_threads=0 / nr=0 / decimate=0 / interlaced=0 / bluray_compat=0 / constrained_intra=0 / bframes=8 / b_pyramid=2 / b_adapt=2 / b_bias=0 / direct=3 / weightb=1 / open_gop=0 / weightp=2 / keyint=250 / keyint_min=23 / scenecut=40 / intra_refresh=0 / rc_lookahead=60 / rc=crf / mbtree=1 / crf=22.5 / qcomp=0.60 / qpmin=0 / qpmax=69 / qpstep=4 / ip_ratio=1.40 / aq=3:0.90
Default                                  : Yes
Forced                                   : No
Color range                              : Limited
Matrix coefficients                      : BT.709

Audio #1
ID                                       : 2
Format                                   : FLAC
Format/Info                              : Free Lossless Audio Codec
Codec ID                                 : A_FLAC
Duration                                 : 1 h 20 min
Bit rate mode                            : Variable
Bit rate                                 : 754 kb/s
Channel(s)                               : 1 channel
Channel layout                           : C
Sampling rate                            : 48.0 kHz
Frame rate                               : 11.719 FPS (4096 SPF)
Bit depth                                : 24 bits
Compression mode                         : Lossless
Stream size                              : 435 MiB (6%)
Writing library                          : libFLAC 1.3.3 (UTC 2019-08-04)
Language                                 : English
Default                                  : Yes
Forced                                   : No

Audio #2
ID                                       : 3
Format                                   : AAC LC
Format/Info                              : Advanced Audio Codec Low Complexity
Codec ID                                 : A_AAC-2
Duration                                 : 1 h 20 min
Bit rate                                 : 72.0 kb/s
Channel(s)                               : 1 channel
Channel layout                           : C
Sampling rate                            : 48.0 kHz
Frame rate                               : 46.875 FPS (1024 SPF)
Compression mode                         : Lossy
Delay relative to video                  : 20 ms
Stream size                              : 41.3 MiB (1%)
Title                                    : Commentary
Language                                 : English
Default                                  : No
Forced                                   : No

Text
ID                                       : 4
Format                                   : PGS
Muxing mode                              : zlib
Codec ID                                 : S_HDMV/PGS
Codec ID/Info                            : Picture based subtitle format used on BDs/HD-DVDs
Duration                                 : 1 h 20 min
Bit rate                                 : 28.5 kb/s
Count of elements                        : 1692
Stream size                              : 16.4 MiB (0%)
Title                                    : SDH
Language                                 : English
Default                                  : No
Forced                                   : No

Menu
00:00:00.000                             : Chapter 01
00:06:14.624                             : Chapter 02
00:13:28.975                             : Chapter 03
00:20:12.002                             : Chapter 04
00:26:22.247                             : Chapter 05
00:33:42.354                             : Chapter 06
00:40:19.083                             : Chapter 07
00:46:47.054                             : Chapter 08
00:53:18.153                             : Chapter 09
01:00:21.034                             : Chapter 10
01:06:25.773                             : Chapter 11
01:14:34.470                             : Chapter 12
01:20:32.911                             : Chapter 13

5e84edd2730f0d55b7de3680a131c6a3.jpg





                                                                                                                                                                                                        
                                                                                                                                                                                                                                                                                                                                                                                                                                                                                                                                                                                                                                                                                                                                                                                                                                                        
041b696bdf34078f75ca53fd578c3d01.torrent (19.84 KB, 下载次数: 0)

回复

使用道具 举报

小黑屋|百度云资源论坛 ( 闽ICP备16005822号-1 )

本网站所有资源来自网络,如无意中侵犯了您的权益,请发邮件至 [email protected],立即清除相关链接

GMT+8, 2022-8-10 04:54 , Processed in 0.071481 second(s), 17 queries .

Powered by Discuz! X3.4

© 2001-2017 Comsenz Inc.

快速回复 返回顶部 返回列表