百度云资源论坛

 找回密码
 立即注册
搜索
热搜: 百度云资源
开启左侧

上瘾一代人 The.Hooked.Generation.1968.1080p.BluRay.x264-GAZER 8.97GB

[复制链接]
百度云电影 发表于 2022-6-23 16:04:15 | 显示全部楼层 |阅读模式
上瘾一代人 The.Hooked.Generation.1968.1080p.BluRay.x264-GAZER 8.97GB                                                                                                                                                                                                                                                                                                                                                                                                                                                                                                                                        -->
帖子完整标题:上瘾一代人 The.Hooked.Generation.1968.1080p.BluRay.x264-GAZER 8.97GB



55bb30cb929d38c6a3175e1f8834fdb2.jpg



◎译  名 上瘾一代人
◎片  名 The Hooked Generation
◎年  代 1968
◎产  地 美国
◎类  别 剧情 / 犯罪
◎语  言 英语
◎上映日期 1968-11-13
◎IMDb链接 
◎豆瓣链接 
◎片  长 USA: 92 分钟
◎导  演 威廉·格雷菲 William Grefe (id:1048541)
◎编  剧 威廉·格雷菲 William Grefe (id:1048541)
       Ray Preston Ray Preston (id:1009118)
◎演  员 杰里米·斯莱特 Jeremy Slate (id:1004779)
       Steve Alaimo Steve Alaimo (id:1056814)
       约翰·戴维斯·钱德勒 John Davis Chandler (id:1069236)
       Willie Pastrano Willie Pastrano (id:1134728)
       希希·斯顿 Cece Stone (id:1243813)
       William Kerwin William Kerwin (id:1113752)
       威廉·格雷菲 William Grefe (id:1048541)
Video
ID                                       : 1
Format                                   : AVC
Format/Info                              : Advanced Video Codec
Format profile                           :
Format settings                          : CABAC / 5 Ref Frames
Format settings, CABAC                   : Yes
Format settings, Reference frames        : 5 frames
Codec ID                                 : V_MPEG4/ISO/AVC
Duration                                 : 1 h 34 min
Bit rate                                 : 12.9 Mb/s
Width                                    : 1 440 pixels
Height                                   : 1 080 pixels
Display aspect ratio                     : 4:3
Frame rate mode                          : Constant
Frame rate                               : 23.976 (24000/1001/189150) FPS
Color space                              : YUV
Chroma subsampling                       : 4:2:0
Bit depth                                : 8 bits
Scan type                                : Progressive
Bits/(Pixel*Frame)                       : 0.346
Stream size                              : 8.52 GiB (95%)
Writing library                          : x264 core 164 r3094 bfc87b7
Encoding settings                        : cabac=1 / ref=5 / deblock=1:-3:-3 / analyse=0x3:0x133 / me=umh / subme=10 / psy=1 / psy_rd=1.20:0.00 / mixed_ref=1 / me_range=24 / chroma_me=1 / trellis=2 / 8x8dct=1 / cqm=0 / deadzone=21,11 / fast_pskip=0 / chroma_qp_offset=-2 / threads=24 / lookahead_threads=4 / sliced_threads=0 / nr=0 / decimate=0 / interlaced=0 / bluray_compat=0 / constrained_intra=0 / bframes=8 / b_pyramid=2 / b_adapt=2 / b_bias=0 / direct=3 / weightb=1 / open_gop=0 / weightp=2 / keyint=250 / keyint_min=23 / scenecut=40 / intra_refresh=0 / rc_lookahead=60 / rc=crf / mbtree=1 / crf=23.0 / qcomp=0.60 / qpmin=0 / qpmax=69 / qpstep=4 / ip_ratio=1.40 / aq=3:0.90
Default                                  : Yes
Forced                                   : No
Color range                              : Limited
Matrix coefficients                      : BT.709

Audio #1
ID                                       : 2
Format                                   : FLAC
Format/Info                              : Free Lossless Audio Codec
Codec ID                                 : A_FLAC
Duration                                 : 1 h 34 min
Bit rate mode                            : Variable
Bit rate                                 : 584 kb/s
Channel(s)                               : 1 channel
Channel layout                           : C
Sampling rate                            : 48.0 kHz
Frame rate                               : 11.719 FPS (4096 SPF)
Bit depth                                : 24 bits
Compression mode                         : Lossless
Stream size                              : 395 MiB (4%)
Writing library                          : libFLAC 1.3.3 (UTC 2019-08-04)
Language                                 : English
Default                                  : Yes
Forced                                   : No

Audio #2
ID                                       : 3
Format                                   : AAC LC
Format/Info                              : Advanced Audio Codec Low Complexity
Codec ID                                 : A_AAC-2
Duration                                 : 1 h 34 min
Bit rate                                 : 84.6 kb/s
Channel(s)                               : 2 channels
Channel layout                           : L R
Sampling rate                            : 48.0 kHz
Frame rate                               : 46.875 FPS (1024 SPF)
Compression mode                         : Lossy
Delay relative to video                  : 20 ms
Stream size                              : 57.1 MiB (1%)
Title                                    : Commentary
Language                                 : English
Default                                  : No
Forced                                   : No

Text
ID                                       : 4
Format                                   : PGS
Muxing mode                              : zlib
Codec ID                                 : S_HDMV/PGS
Codec ID/Info                            : Picture based subtitle format used on BDs/HD-DVDs
Duration                                 : 1 h 32 min
Bit rate                                 : 26.7 kb/s
Count of elements                        : 2064
Stream size                              : 17.7 MiB (0%)
Title                                    : SDH
Language                                 : English
Default                                  : No
Forced                                   : No

Menu
00:00:00.000                             : Chapter 01
00:07:51.846                             : Chapter 02
00:15:29.428                             : Chapter 03
00:23:47.176                             : Chapter 04
00:30:31.455                             : Chapter 05
00:38:57.085                             : Chapter 06
00:47:10.661                             : Chapter 07
00:53:26.495                             : Chapter 08
01:02:30.664                             : Chapter 09
01:10:18.714                             : Chapter 10
01:18:56.982                             : Chapter 11
01:25:45.599                             : Chapter 12

19a06f55f157e4f1b9a12e14e64598fa.jpg





                                                                                                                                                                                                        
                                                                                                                                                                                                                                                                                                                                                                                                                                                                                                                                                                                                                                                                                                                                                                                                                                                        
9bcf8feb94a29f53087ffd1464697992.torrent (23.16 KB, 下载次数: 0)

回复

使用道具 举报

小黑屋|百度云资源论坛 ( 闽ICP备16005822号-1 )

本网站所有资源来自网络,如无意中侵犯了您的权益,请发邮件至 [email protected],立即清除相关链接

GMT+8, 2022-8-10 03:41 , Processed in 0.067389 second(s), 17 queries .

Powered by Discuz! X3.4

© 2001-2017 Comsenz Inc.

快速回复 返回顶部 返回列表