百度云资源论坛

 找回密码
 立即注册
搜索
热搜: 百度云资源
开启左侧

沙丘 Dune.1984.iNTERNAL.1080p.BluRay.x264-PEGASUS 15.65GB

[复制链接]
百度云电影 发表于 2022-6-23 16:04:18 | 显示全部楼层 |阅读模式
沙丘 Dune.1984.iNTERNAL.1080p.BluRay.x264-PEGASUS 15.65GB                                                                                                                                                                                                                                                                                                                                                                                                                                                                                                                                        -->
帖子完整标题:沙丘 Dune.1984.iNTERNAL.1080p.BluRay.x264-PEGASUS 15.65GB





◎标  题 沙丘
◎译  名 星际奇兵(港) / 沙丘魔堡(台)
◎片  名 Dune
◎年  代 1984
◎产  地 美国
◎类  别 动作 / 科幻 / 冒险
◎语  言 英语 / 意大利语
◎上映日期 1984-12-01(美国)
◎IMDb评分 6.4/10 (153957人评价)
◎IMDb链接 
◎豆瓣评分 6.0/10 (5906人评价)
◎豆瓣链接 
◎片  长 137 分钟
◎导  演 大卫·林奇 David Lynch
◎编  剧 大卫·林奇 David Lynch
       弗兰克·赫伯特 Frank Herbert
◎演  员 肖恩·杨 Sean Young
       帕特里克·斯图尔特 Patrick Stewart
       斯汀 Sting
       凯尔·麦克拉克伦 Kyle MacLachlan
       理查德·乔丹 Richard Jordan
       西尔瓦娜·曼加诺 Silvana Mangano
       埃沃雷特·麦克吉尔 Everett McGill
       肯尼思·麦克米伦 Kenneth McMillan
       简·菲利普斯 Siân Phillips
       尤尔根·普洛斯诺 Jürgen Prochnow
       保罗·L·史密斯 Paul L. Smith
       迪恩·斯托克维尔 Dean Stockwell
       琳达·亨特 Linda Hunt
       何塞·费勒 José Ferrer
       维吉妮娅·马德森 Virginia Madsen
       艾丽西亚·维特 Alicia Witt
       大卫·林奇 David Lynch
       马克斯·冯·叙多夫 Max von Sydow
       杰克·南斯 Jack Nance
       弗雷迪·琼斯 Freddie Jones
       安杰莉卡·阿拉贡 Angélica Aragón
       何塞·洛佩斯·罗德罗 José López Rodero
       安东尼·马斯特斯 Anthony Masters
       本哈明·费勒南戴斯 Benjamín Fernández
       Pier Luigi Basile Pier Luigi Basile
       鲍勃·林伍德 Bob Ringwood
       Mauro Tamagnini Mauro Tamagnini
       克里斯托弗·塔克 Christopher Tucker
       路易吉·洛切蒂 Luigi Rocchetti
       琼·安·布兰克 Jean Ann Black
       何塞·洛佩斯·罗德罗 José López Rodero
       Víctor Albarrán Víctor Albarrán
       克里斯托弗·S·罗斯 Christopher S. Ross
       布莱恩·史密西斯 Brian Smithies
       马克·弗伦德 Mark Freund
       David S. Williams Jr. David S. Williams Jr.

◎标  签 科幻 / 大卫·林奇 / 美国 / 沙丘 / 1984 / DavidLynch / 美国电影 / 1980s

◎简  介
  故事发生在遥远的未来时代,沙丹四世(何塞·费勒 José Ferrer 饰)是宇宙之王,他靠着自己的强权和武力控制着整个帝国。尽管手握大权,但沙丹四世还是没有安全感,他认为自己的表弟亚崔迪公爵(尤尔根·普洛斯诺 Jürgen Prochnow 饰)企图谋权篡位,因此将他发配到了遥远的凯勒丹行星上。                                    
                                沙丹四世对于亚崔迪公爵的迫害并没有停止,最后,公爵战败自杀,留下妻子和儿子保罗(凯尔·麦克拉克伦 Kyle MacLachlan 饰)流离失所,两人逃到了广袤的沙漠之中,向当地的土著求助。土著们将保罗当做了他们的救世主顶礼膜拜,保罗最终成为了土著领袖,并和名为佳妮(肖恩·杨 Sean Young 饰)的当地女子结为夫妻,然而,复仇的火焰从未在他的心中熄灭过。
Video
ID                                       : 1
Format                                   : AVC
Format/Info                              : Advanced Video Codec
Format profile                           :
Format settings                          : CABAC / 5 Ref Frames
Format settings, CABAC                   : Yes
Format settings, Reference frames        : 5 frames
Codec ID                                 : V_MPEG4/ISO/AVC
Duration                                 : 2 h 16 min
Bit rate                                 : 13.5 Mb/s
Width                                    : 1 916 pixels
Height                                   : 812 pixels
Display aspect ratio                     : 2.35:1
Frame rate mode                          : Constant
Frame rate                               : 23.976 (24000/1001/189150) FPS
Color space                              : YUV
Chroma subsampling                       : 4:2:0
Bit depth                                : 8 bits
Scan type                                : Progressive
Bits/(Pixel*Frame)                       : 0.361
Stream size                              : 12.8 GiB (82%)
Writing library                          : x264 core 164 r3094 bfc87b7
Encoding settings                        : cabac=1 / ref=5 / deblock=1:-3:-3 / analyse=0x3:0x133 / me=umh / subme=11 / psy=1 / psy_rd=1.02:0.00 / mixed_ref=1 / me_range=32 / chroma_me=1 / trellis=2 / 8x8dct=1 / cqm=0 / deadzone=21,11 / fast_pskip=0 / chroma_qp_offset=-2 / threads=25 / lookahead_threads=6 / sliced_threads=0 / nr=0 / decimate=0 / interlaced=0 / bluray_compat=0 / constrained_intra=0 / bframes=16 / b_pyramid=2 / b_adapt=2 / b_bias=0 / direct=3 / weightb=1 / open_gop=0 / weightp=2 / keyint=250 / keyint_min=23 / scenecut=40 / intra_refresh=0 / rc_lookahead=250 / rc=crf / mbtree=0 / crf=17.5 / qcomp=0.60 / qpmin=0 / qpmax=69 / qpstep=4 / vbv_maxrate=62500 / vbv_bufsize=78125 / crf_max=0.0 / nal_hrd=none / filler=0 / ip_ratio=1.30 / pb_ratio=1.20 / aq=3:0.80
Default                                  : Yes
Forced                                   : No
Color range                              : Limited
Color primaries                          : BT.709
Matrix coefficients                      : BT.709

Audio
ID                                       : 2
Format                                   : DTS XLL
Format/Info                              : Digital Theater Systems
Commercial name                          : DTS-HD Master Audio
Codec ID                                 : A_DTS
Duration                                 : 2 h 16 min
Bit rate mode                            : Variable
Bit rate                                 : 2 928 kb/s
Channel(s)                               : 6 channels
Channel layout                           : C L R Ls Rs LFE
Sampling rate                            : 48.0 kHz
Frame rate                               : 93.750 FPS (512 SPF)
Bit depth                                : 16 bits
Compression mode                         : Lossless
Stream size                              : 2.79 GiB (18%)
Language                                 : English
Default                                  : Yes
Forced                                   : No

Text #1
ID                                       : 3
Format                                   : PGS
Muxing mode                              : zlib
Codec ID                                 : S_HDMV/PGS
Codec ID/Info                            : Picture based subtitle format used on BDs/HD-DVDs
Duration                                 : 2 h 12 min
Bit rate                                 : 19.4 kb/s
Count of elements                        : 1956
Stream size                              : 18.4 MiB (0%)
Language                                 : Italian
Default                                  : No
Forced                                   : No

Text #2
ID                                       : 4
Format                                   : PGS
Muxing mode                              : zlib
Codec ID                                 : S_HDMV/PGS
Codec ID/Info                            : Picture based subtitle format used on BDs/HD-DVDs
Duration                                 : 959 ms
Bit rate                                 : 14.1 kb/s
Count of elements                        : 2
Stream size                              : 1.65 KiB (0%)
Language                                 : Italian
Default                                  : No
Forced                                   : No

Menu
00:00:00.000                             : :Chapter 01
00:11:58.551                             : :Chapter 02
00:22:53.956                             : :Chapter 03
00:34:06.962                             : :Chapter 04
00:44:44.932                             : :Chapter 05
00:57:14.348                             : :Chapter 06
01:06:56.554                             : :Chapter 07
01:20:12.725                             : :Chapter 08
01:31:09.130                             : :Chapter 09
01:41:52.606                             : :Chapter 10
01:53:39.938                             : :Chapter 11
02:02:41.938                             : :Chapter 12





                                                                                                                                                                                                        
                                                                                                                                                                                                                                                                                                                                                                                                                                                                                                                                                                                                                                                                                                                                                                                                                                                        
dcd331625ba7ac1d561e0c62e906f30d.torrent (20.28 KB, 下载次数: 0)

回复

使用道具 举报

小黑屋|百度云资源论坛 ( 闽ICP备16005822号-1 )

本网站所有资源来自网络,如无意中侵犯了您的权益,请发邮件至 [email protected],立即清除相关链接

GMT+8, 2022-8-8 09:59 , Processed in 0.068159 second(s), 17 queries .

Powered by Discuz! X3.4

© 2001-2017 Comsenz Inc.

快速回复 返回顶部 返回列表