百度云资源论坛

 找回密码
 立即注册
搜索
热搜: 百度云资源
开启左侧

恐怖地窖 The.Cellar.2022.1080p.BluRay.x264.DTS-MT 12.64GB

[复制链接]
百度云资源 发表于 2022-6-23 16:04:21 | 显示全部楼层 |阅读模式
恐怖地窖 The.Cellar.2022.1080p.BluRay.x264.DTS-MT 12.64GB                                                                                                                                                                                                                                                                                                                                                                                                                                                                                                                                        -->
帖子完整标题:恐怖地窖 The.Cellar.2022.1080p.BluRay.x264.DTS-MT 12.64GB



b12ca1f2447ebfb81405715cec4587c2.jpg



◎译  名 恐怖地窖
◎片  名 The Cellar
◎年  代 2022
◎产  地 爱尔兰 / 比利时 / 美国
◎类  别 恐怖
◎语  言 英语
◎上映日期 2022-03-12(西南偏南电影节) / 2022-03-25(爱尔兰)
◎IMDb链接 
◎豆瓣评分 5.6/10 (1582人评价)
◎豆瓣链接 
◎片  长 94分钟
◎演  员 伊丽莎·库斯伯特 Elisha Cuthbert (id:1003486)
       欧文·马肯 Eoin Macken (id:1313436)
       狄龙·菲茨莫里斯·布雷迪 Dylan Fitzmaurice Brady (id:1472695)
       艾比·菲茨 Abby Fitz (id:1472544)
       Tara Lee Tara Lee (id:1444668)
       肖恩·多耶尔 Seán Doyle (id:1266565)
       克里斯·麦克哈利姆 Chris McHallem (id:1342341)
       斯蒂夫·根恩 Steve Gunn (id:1363026)

◎简  介
  凯拉·伍兹(Elisha Cuthbert饰)的女儿神秘地消失在他们乡下新房子的地窖里,然而凯拉很快发现,有一个古老而强大的恶魔控制着他们的家,她将不得不面对或冒着永远失去家人灵魂的风险。与卡斯伯特一起最后与宇宙中最古老的邪恶作斗争,否则将永远失去家人的灵魂。
Video
ID                                       : 1
Format                                   : AVC
Format/Info                              : Advanced Video Codec
Format profile                           :
Format settings                          : CABAC / 5 Ref Frames
Format settings, CABAC                   : Yes
Format settings, Reference frames        : 5 frames
Codec ID                                 : V_MPEG4/ISO/AVC
Duration                                 : 1 h 34 min
Bit rate                                 : 17.7 Mb/s
Width                                    : 1 920 pixels
Height                                   : 804 pixels
Display aspect ratio                     : 2.40:1
Frame rate mode                          : Constant
Frame rate                               : 23.976 (24000/1001/189150) FPS
Color space                              : YUV
Chroma subsampling                       : 4:2:0
Bit depth                                : 8 bits
Scan type                                : Progressive
Bits/(Pixel*Frame)                       : 0.477
Stream size                              : 11.6 GiB (92%)
Writing library                          : x264 core 157 r2938 2b00a84  Mod
Encoding settings                        : cabac=1 / ref=5 / deblock=1:-3:-3 / analyse=0x3:0x133 / me=umh / subme=10 / psy=1 / psy_rd=1.05:0.00 / mixed_ref=1 / me_range=32 / chroma_me=1 / trellis=2 / 8x8dct=1 / cqm=0 / deadzone=21,11 / fast_pskip=0 / chroma_qp_offset=-2 / threads=12 / lookahead_threads=2 / sliced_threads=0 / nr=0 / decimate=0 / interlaced=0 / bluray_compat=0 / constrained_intra=0 / bframes=8 / b_pyramid=2 / b_adapt=2 / b_bias=0 / direct=3 / weightb=1 / open_gop=0 / weightp=2 / keyint=250 / keyint_min=24 / scenecut=40 / intra_refresh=0 / rc_lookahead=250 / rc=crf / mbtree=0 / crf=16.8 / qcomp=0.60 / qpmin=0 / qpmax=69 / qpstep=4 / vbv_maxrate=62500 / vbv_bufsize=78125 / crf_max=0.0 / nal_hrd=none / filler=0 / ip_ratio=1.30 / pb_ratio=1.20 / aq=3:0.80
Language                                 : English
Default                                  : Yes
Forced                                   : No
Color range                              : Limited
Color primaries                          : BT.709
Matrix coefficients                      : BT.709

Audio
ID                                       : 2
Format                                   : DTS
Format/Info                              : Digital Theater Systems
Codec ID                                 : A_DTS
Duration                                 : 1 h 34 min
Bit rate mode                            : Constant
Bit rate                                 : 1 509 kb/s
Channel(s)                               : 6 channels
Channel layout                           : C L R Ls Rs LFE
Sampling rate                            : 48.0 kHz
Frame rate                               : 93.750 FPS (512 SPF)
Bit depth                                : 16 bits
Compression mode                         : Lossy
Stream size                              : 1 018 MiB (8%)
Language                                 : English
Default                                  : Yes
Forced                                   : No

Text #1
ID                                       : 3
Format                                   : UTF-8
Codec ID                                 : S_TEXT/UTF8
Codec ID/Info                            : UTF-8 Plain Text
Duration                                 : 1 h 25 min
Bit rate                                 : 33 b/s
Count of elements                        : 818
Stream size                              : 21.0 KiB (0%)
Language                                 : English
Default                                  : Yes
Forced                                   : No

Text #2
ID                                       : 4
Format                                   : UTF-8
Codec ID                                 : S_TEXT/UTF8
Codec ID/Info                            : UTF-8 Plain Text
Duration                                 : 1 h 28 min
Bit rate                                 : 37 b/s
Count of elements                        : 988
Stream size                              : 24.1 KiB (0%)
Title                                    : SDH
Language                                 : English
Default                                  : No
Forced                                   : No

Menu
00:00:00.000                             : en:Chapter 01
00:09:34.240                             : en:Chapter 02
00:19:54.068                             : en:Chapter 03
00:27:13.757                             : en:Chapter 04
00:39:46.467                             : en:Chapter 05
00:51:40.431                             : en:Chapter 06
01:00:59.489                             : en:Chapter 07
01:09:36.881                             : en:Chapter 08
01:26:37.984                             : en:Chapter 09

b057f6143cf7fbff35c8032a03899896.png

[/url]f806590800d3daa1fee77c6d21d798c8.png

[/url]71e4e9a9fe409f5401a711fe141bfdfe.png

[/url]



                                                                                                                                                                                                        
                                                                                                                                                                                                                                                                                                                                                                                                                                                                                                                                                                                                                                                                                                                                                                                                                                                        
5d1de16c25d2cde1aacba40f381dbd11.torrent (16.4 KB, 下载次数: 0)

回复

使用道具 举报

小黑屋|百度云资源论坛 ( 闽ICP备16005822号-1 )

本网站所有资源来自网络,如无意中侵犯了您的权益,请发邮件至 [email protected],立即清除相关链接

GMT+8, 2022-8-8 09:02 , Processed in 0.070878 second(s), 17 queries .

Powered by Discuz! X3.4

© 2001-2017 Comsenz Inc.

快速回复 返回顶部 返回列表