百度云资源论坛

 找回密码
 立即注册
搜索
热搜: 百度云资源
开启左侧

逃出玉米地 Escape.the.Field.2022.1080p.BluRay.x264.DTS-HD.MA.5.1-MT 9.70GB

[复制链接]
百度云电影 发表于 2022-6-23 16:04:23 | 显示全部楼层 |阅读模式
逃出玉米地 Escape.the.Field.2022.1080p.BluRay.x264.DTS-HD.MA.5.1-MT 9.70GB                                                                                                                                                                                                                                                                                                                                                                                                                                                                                                                                        -->
帖子完整标题:逃出玉米地 Escape.the.Field.2022.1080p.BluRay.x264.DTS-HD.MA.5.1-MT 9.70GB



6839da2556acd80c6625caaf64856cdc.jpg



◎译  名 逃出玉米地 / 玉米地的怪物 / 逃离玉米地
◎片  名 Escape The Field
◎年  代 2022
◎产  地 美国
◎类  别 惊悚
◎语  言 英语
◎上映日期 2022-05-06(美国网络)
◎IMDb链接 
◎豆瓣评分 4.7/10 (104人评价)
◎豆瓣链接 
◎片  长 89分钟
◎演  员 夏恩·韦斯特 Shane West (id:1017909)
       西奥·罗西 Theo Rossi (id:1146762)
       乔丹·克莱尔·罗宾斯 Jordan Claire Robbins (id:1410755)
       伊莲娜·郁安科 Elena Juatco (id:1356472)
       朱利安·费德 Julian Feder (id:1392612)

◎简  介
  六个陌生人醒来时被困在一片无尽的玉米地里,却发现了一件神秘的东西正在追捕他们。
Video
ID                                       : 1
Format                                   : AVC
Format/Info                              : Advanced Video Codec
Format profile                           :
Format settings                          : CABAC / 5 Ref Frames
Format settings, CABAC                   : Yes
Format settings, Reference frames        : 5 frames
Codec ID                                 : V_MPEG4/ISO/AVC
Duration                                 : 1 h 28 min
Bit rate                                 : 12.0 Mb/s
Width                                    : 1 920 pixels
Height                                   : 804 pixels
Display aspect ratio                     : 2.40:1
Frame rate mode                          : Constant
Frame rate                               : 23.976 (24000/1001/189150) FPS
Color space                              : YUV
Chroma subsampling                       : 4:2:0
Bit depth                                : 8 bits
Scan type                                : Progressive
Bits/(Pixel*Frame)                       : 0.324
Stream size                              : 7.42 GiB (77%)
Writing library                          : x264 core 157 r2938 2b00a84  Mod
Encoding settings                        : cabac=1 / ref=5 / deblock=1:-3:-3 / analyse=0x3:0x133 / me=umh / subme=10 / psy=1 / psy_rd=1.05:0.00 / mixed_ref=1 / me_range=32 / chroma_me=1 / trellis=2 / 8x8dct=1 / cqm=0 / deadzone=21,11 / fast_pskip=0 / chroma_qp_offset=-2 / threads=12 / lookahead_threads=2 / sliced_threads=0 / nr=0 / decimate=0 / interlaced=0 / bluray_compat=0 / constrained_intra=0 / bframes=8 / b_pyramid=2 / b_adapt=2 / b_bias=0 / direct=3 / weightb=1 / open_gop=0 / weightp=2 / keyint=250 / keyint_min=24 / scenecut=40 / intra_refresh=0 / rc_lookahead=250 / rc=crf / mbtree=0 / crf=16.8 / qcomp=0.60 / qpmin=0 / qpmax=69 / qpstep=4 / vbv_maxrate=62500 / vbv_bufsize=78125 / crf_max=0.0 / nal_hrd=none / filler=0 / ip_ratio=1.30 / pb_ratio=1.20 / aq=3:0.80
Language                                 : English
Default                                  : Yes
Forced                                   : No
Color range                              : Limited
Color primaries                          : BT.709
Matrix coefficients                      : BT.709

Audio
ID                                       : 2
Format                                   : DTS XLL
Format/Info                              : Digital Theater Systems
Commercial name                          : DTS-HD Master Audio
Codec ID                                 : A_DTS
Duration                                 : 1 h 28 min
Bit rate mode                            : Variable
Bit rate                                 : 3 665 kb/s
Channel(s)                               : 6 channels
Channel layout                           : C L R Ls Rs LFE
Sampling rate                            : 48.0 kHz
Frame rate                               : 93.750 FPS (512 SPF)
Bit depth                                : 24 bits
Compression mode                         : Lossless
Stream size                              : 2.27 GiB (23%)
Language                                 : English
Default                                  : Yes
Forced                                   : No

Text #1
ID                                       : 3
Format                                   : UTF-8
Codec ID                                 : S_TEXT/UTF8
Codec ID/Info                            : UTF-8 Plain Text
Duration                                 : 1 h 19 min
Bit rate                                 : 37 b/s
Count of elements                        : 801
Stream size                              : 21.7 KiB (0%)
Language                                 : English
Default                                  : Yes
Forced                                   : No

Text #2
ID                                       : 4
Format                                   : UTF-8
Codec ID                                 : S_TEXT/UTF8
Codec ID/Info                            : UTF-8 Plain Text
Duration                                 : 1 h 20 min
Bit rate                                 : 41 b/s
Count of elements                        : 939
Stream size                              : 24.7 KiB (0%)
Title                                    : SDH
Language                                 : English
Default                                  : No
Forced                                   : No

Text #3
ID                                       : 5
Format                                   : PGS
Muxing mode                              : zlib
Codec ID                                 : S_HDMV/PGS
Codec ID/Info                            : Picture based subtitle format used on BDs/HD-DVDs
Duration                                 : 1 h 20 min
Bit rate                                 : 29.7 kb/s
Count of elements                        : 1880
Stream size                              : 17.0 MiB (0%)
Language                                 : English
Default                                  : No
Forced                                   : No

Menu
00:00:00.000                             : en:Chapter 01
00:06:49.367                             : en:Chapter 02
00:11:31.733                             : en:Chapter 03
00:15:30.179                             : en:Chapter 04
00:19:16.322                             : en:Chapter 05
00:23:50.137                             : en:Chapter 06
00:29:35.482                             : en:Chapter 07
00:33:49.653                             : en:Chapter 08
00:39:13.560                             : en:Chapter 09
00:43:40.660                             : en:Chapter 10
00:48:45.589                             : en:Chapter 11
00:55:46.885                             : en:Chapter 12
01:01:11.293                             : en:Chapter 13
01:06:26.149                             : en:Chapter 14
01:10:33.062                             : en:Chapter 15
01:16:31.003                             : en:Chapter 16

6665cb49a0b35608b364b2677285902f.png

[/url]fe8cb5bd0e743ab179a6947fbcad3ebc.png

[/url]2a347483321f524551940c39fcca3afc.png

[/url]



                                                                                                                                                                                                        
                                                                                                                                                                                                                                                                                                                                                                                                                                                                                                                                                                                                                                                                                                                                                                                                                                                        
ce23e20f90fda4c3970a852f6c2fa1e3.torrent (24.89 KB, 下载次数: 0)

回复

使用道具 举报

小黑屋|百度云资源论坛 ( 闽ICP备16005822号-1 )

本网站所有资源来自网络,如无意中侵犯了您的权益,请发邮件至 [email protected]look.com,立即清除相关链接

GMT+8, 2022-8-10 04:34 , Processed in 0.079031 second(s), 17 queries .

Powered by Discuz! X3.4

© 2001-2017 Comsenz Inc.

快速回复 返回顶部 返回列表