百度云资源论坛

 找回密码
 立即注册
搜索
热搜: 百度云资源
开启左侧

灰姑娘 Cinderella.2021.1080p.BluRay.x264.DTS-HD.MA.5.1-MT 11.02GB

[复制链接]
百度云资源 发表于 2022-6-23 16:04:29 | 显示全部楼层 |阅读模式
灰姑娘 Cinderella.2021.1080p.BluRay.x264.DTS-HD.MA.5.1-MT 11.02GB                                                                                                                                                                                                                                                                                                                                                                                                                                                                                                                                        -->
帖子完整标题:灰姑娘 Cinderella.2021.1080p.BluRay.x264.DTS-HD.MA.5.1-MT 11.02GB



f989df5fa59d8a204c7cfa8c302d44bb.jpg



◎译  名 灰姑娘
◎片  名 Cinderella
◎年  代 2021
◎产  地 英国 / 美国
◎类  别 喜剧 / 爱情 / 歌舞 / 奇幻
◎语  言 英语
◎上映日期 2021-09-03(美国网络)
◎IMDb链接 
◎豆瓣评分 5.4/10 (3941人评价)
◎豆瓣链接 
◎片  长 113分钟
◎导  演 凯·加农 Kay Cannon (id:1324071)
◎编  剧 凯·加农 Kay Cannon (id:1324071)
       詹姆斯·柯登 James Corden (id:1017966)
◎演  员 卡米拉·卡贝欧 Camila Cabello (id:1411733)
       尼古拉斯·加利齐纳 Nicholas Galitzine (id:1365256)
       伊迪娜·门泽尔 Idina Menzel (id:1116746)
       皮尔斯·布鲁斯南 Pierce Brosnan (id:1031219)
       明妮·德里弗 Minnie Driver (id:1004602)
       比利·波特 Billy Porter (id:1050593)
       麦迪·贝里欧 Maddie Baillio (id:1406688)
       夏洛特·斯宾塞 Charlotte Spencer (id:1343846)
       詹姆斯·柯登 James Corden (id:1017966)
       Tallulah Greive Tallulah Greive (id:1450691)
       James Acaster James Acaster (id:1388648)
       罗梅什·兰加纳坦 Romesh Ranganathan (id:1353444)
       Rob Beckett Rob Beckett (id:1388501)
       本·贝利·史密斯 Ben Bailey Smith (id:1444755)
       弗拉·菲 Fra Fee (id:1429389)
       Beverley Knight Beverley Knight (id:1174350)
       Natasha Patel Natasha Patel (id:1450701)
       妮基塔·查达哈 Nikkita Chadha (id:1449234)
       约翰·艾伦·罗伯茨 John Alan Roberts (id:1442711)
        Danny Salomon (id:1244290)
       艾伦·米罗伊尼克 Ellen Mirojnick (id:1010099)

◎简  介
  根据消息指出,卡妹版本的《灰姑娘》是一部具有现代性和女权主义的新式公主电影,据说加入了Me Too运动的隐喻内容,表达女性的自主和自我,也同时将充满性别平等的意义。
Video
ID                                       : 1
Format                                   : AVC
Format/Info                              : Advanced Video Codec
Format profile                           :
Format settings                          : CABAC / 5 Ref Frames
Format settings, CABAC                   : Yes
Format settings, Reference frames        : 5 frames
Codec ID                                 : V_MPEG4/ISO/AVC
Duration                                 : 1 h 52 min
Bit rate                                 : 11.7 Mb/s
Width                                    : 1 920 pixels
Height                                   : 804 pixels
Display aspect ratio                     : 2.40:1
Frame rate mode                          : Constant
Frame rate                               : 23.976 (24000/1001/189150) FPS
Color space                              : YUV
Chroma subsampling                       : 4:2:0
Bit depth                                : 8 bits
Scan type                                : Progressive
Bits/(Pixel*Frame)                       : 0.317
Stream size                              : 9.23 GiB (84%)
Writing library                          : x264 core 157 r2938 2b00a84  Mod
Encoding settings                        : cabac=1 / ref=5 / deblock=1:-3:-3 / analyse=0x3:0x133 / me=umh / subme=10 / psy=1 / psy_rd=1.05:0.00 / mixed_ref=1 / me_range=32 / chroma_me=1 / trellis=2 / 8x8dct=1 / cqm=0 / deadzone=21,11 / fast_pskip=0 / chroma_qp_offset=-2 / threads=12 / lookahead_threads=2 / sliced_threads=0 / nr=0 / decimate=0 / interlaced=0 / bluray_compat=0 / constrained_intra=0 / bframes=8 / b_pyramid=2 / b_adapt=2 / b_bias=0 / direct=3 / weightb=1 / open_gop=0 / weightp=2 / keyint=250 / keyint_min=24 / scenecut=40 / intra_refresh=0 / rc_lookahead=250 / rc=crf / mbtree=0 / crf=16.8 / qcomp=0.60 / qpmin=0 / qpmax=69 / qpstep=4 / vbv_maxrate=62500 / vbv_bufsize=78125 / crf_max=0.0 / nal_hrd=none / filler=0 / ip_ratio=1.30 / pb_ratio=1.20 / aq=3:0.80
Language                                 : English
Default                                  : Yes
Forced                                   : No
Color range                              : Limited
Color primaries                          : BT.709
Matrix coefficients                      : BT.709

Audio
ID                                       : 2
Format                                   : DTS XLL
Format/Info                              : Digital Theater Systems
Commercial name                          : DTS-HD Master Audio
Codec ID                                 : A_DTS
Duration                                 : 1 h 52 min
Bit rate mode                            : Variable
Bit rate                                 : 2 243 kb/s
Channel(s)                               : 6 channels
Channel layout                           : C L R Ls Rs LFE
Sampling rate                            : 48.0 kHz
Frame rate                               : 93.750 FPS (512 SPF)
Bit depth                                : 16 bits
Compression mode                         : Lossless
Stream size                              : 1.76 GiB (16%)
Language                                 : English
Default                                  : Yes
Forced                                   : No

Text #1
ID                                       : 3
Format                                   : UTF-8
Codec ID                                 : S_TEXT/UTF8
Codec ID/Info                            : UTF-8 Plain Text
Duration                                 : 1 h 51 min
Bit rate                                 : 76 b/s
Count of elements                        : 1878
Stream size                              : 62.9 KiB (0%)
Language                                 : English
Default                                  : Yes
Forced                                   : No

Text #2
ID                                       : 4
Format                                   : UTF-8
Codec ID                                 : S_TEXT/UTF8
Codec ID/Info                            : UTF-8 Plain Text
Duration                                 : 1 h 51 min
Bit rate                                 : 80 b/s
Count of elements                        : 2004
Stream size                              : 66.3 KiB (0%)
Title                                    : SDH
Language                                 : English
Default                                  : No
Forced                                   : No

Text #3
ID                                       : 5
Format                                   : PGS
Muxing mode                              : zlib
Codec ID                                 : S_HDMV/PGS
Codec ID/Info                            : Picture based subtitle format used on BDs/HD-DVDs
Duration                                 : 1 h 51 min
Bit rate                                 : 46.5 kb/s
Count of elements                        : 4065
Stream size                              : 37.3 MiB (0%)
Language                                 : English
Default                                  : No
Forced                                   : No

Menu
00:00:00.000                             : en:Chapter 01
00:06:16.710                             : en:Chapter 02
00:12:16.235                             : en:Chapter 03
00:17:26.254                             : en:Chapter 04
00:21:36.879                             : en:Chapter 05
00:27:17.553                             : en:Chapter 06
00:33:24.753                             : en:Chapter 07
00:38:40.568                             : en:Chapter 08
00:44:40.177                             : en:Chapter 09
00:50:51.340                             : en:Chapter 10
00:58:43.061                             : en:Chapter 11
01:07:51.609                             : en:Chapter 12
01:15:59.513                             : en:Chapter 13
01:23:11.570                             : en:Chapter 14
01:29:49.009                             : en:Chapter 15
01:38:29.570                             : en:Chapter 16

7bf1e7537589d845d00d0c925b96f638.png

[/url]9300319b79e793c0856d6ef62e5125be.png

[/url]726b2283a2d1cd169d9a19df65e70cff.png

[/url]



                                                                                                                                                                                                        
                                                                                                                                                                                                                                                                                                                                                                                                                                                                                                                                                                                                                                                                                                                                                                                                                                                        
4c1334f7337603939ef15ea69b985f21.torrent (14.41 KB, 下载次数: 0)

回复

使用道具 举报

小黑屋|百度云资源论坛 ( 闽ICP备16005822号-1 )

本网站所有资源来自网络,如无意中侵犯了您的权益,请发邮件至 [email protected],立即清除相关链接

GMT+8, 2022-8-10 04:58 , Processed in 0.084335 second(s), 17 queries .

Powered by Discuz! X3.4

© 2001-2017 Comsenz Inc.

快速回复 返回顶部 返回列表