百度云资源论坛

 找回密码
 立即注册
搜索
热搜: 百度云资源
开启左侧

切肤之爱 Audition.1999.JAPANESE.REMASTERED.UNRATED.1080p.BluRay.x264.DTS-FGT 10. ...

[复制链接]
百度云资源 发表于 2022-6-23 16:04:31 | 显示全部楼层 |阅读模式
切肤之爱 Audition.1999.JAPANESE.REMASTERED.UNRATED.1080p.BluRay.x264.DTS-FGT 10.49GB                                                                                                                                                                                                                                                                                                                                                                                                                                                                                                                                        -->
帖子完整标题:切肤之爱 Audition.1999.JAPANESE.REMASTERED.UNRATED.1080p.BluRay.x264.DTS-FGT 10.49GB



ae2663a38d432e5099d6b6744a84a00a.jpg



◎标  题 切肤之爱
◎译  名 再婚惊魂记 / 试镜 / Audition
◎片  名 オーディション
◎年  代 1999
◎产  地 日本
◎类  别 剧情 / 悬疑 / 惊悚
◎语  言 日语
◎上映日期 2000年3月3日
◎IMDb评分 7.2/10 (77725人评价)
◎IMDb链接 
◎豆瓣评分 6.9/10 (20139人评价)
◎豆瓣链接 
◎片  长 分钟
◎导  演 三池崇史
◎编  剧 天愿大介
       村上龙
◎演  员 石桥凌
       椎名英姬
       国村隼
       松田美由纪
       根岸季衣
       泽木哲
       齐木茂
       光石研
       大杉涟
       石桥莲司
       广冈由里子
       小日向文世
       远藤太津朗
       津田宽治
       加藤贵子

◎简  介
  青山重治(石桥凌饰)失去爱妻,多年后他将儿子抚养成人。生活解压,长久以来的独身孤寂促使他渴望寻找生命第二春。身为电视制作人的朋友吉川(国村隼饰)听后很乐意帮忙老友,专门为他策划一场选取女演员的视听会——实际是想在众多女孩当中莅选青山的心中佳人。青山看中一个曾练习芭蕾很久,但因伤失去成名机会的女孩山崎麻美(椎名英姬饰)。由于经历相似,两人在视听会上产生共鸣。之后日子里彼此数次约会,感情融洽,一切看似美好,但在一夜欢愉过后,麻美突然从青山身边消失。青山疯狂地四下寻找,但在寻找的过程中也惊恐地发现麻美一些不为人知的过去。终于两人再次重逢,但一切却变得紧张恐怖起来。
Video
ID                                       : 1
Format                                   : AVC
Format/Info                              : Advanced Video Codec
Format profile                           :
Format settings                          : CABAC / 4 Ref Frames
Format settings, CABAC                   : Yes
Format settings, Reference frames        : 4 frames
Codec ID                                 : V_MPEG4/ISO/AVC
Duration                                 : 1 h 55 min
Bit rate                                 : 11.5 Mb/s
Width                                    : 1 920 pixels
Height                                   : 1 036 pixels
Display aspect ratio                     : 1.85:1
Frame rate mode                          : Constant
Frame rate                               : 24.000 FPS
Color space                              : YUV
Chroma subsampling                       : 4:2:0
Bit depth                                : 8 bits
Scan type                                : Progressive
Bits/(Pixel*Frame)                       : 0.241
Stream size                              : 9.27 GiB (88%)
Writing library                          : x264 core 148 r2795M aaa9aa8
Encoding settings                        : cabac=1 / ref=4 / deblock=1:-2:-2 / analyse=0x3:0x113 / me=umh / subme=9 / psy=1 / psy_rd=1.00:0.15 / mixed_ref=1 / me_range=16 / chroma_me=1 / trellis=2 / 8x8dct=1 / cqm=0 / deadzone=21,11 / fast_pskip=1 / chroma_qp_offset=-3 / threads=24 / lookahead_threads=3 / sliced_threads=0 / nr=0 / decimate=1 / interlaced=0 / bluray_compat=0 / constrained_intra=0 / bframes=3 / b_pyramid=2 / b_adapt=1 / b_bias=0 / direct=3 / weightb=1 / open_gop=0 / weightp=2 / keyint=250 / keyint_min=25 / scenecut=40 / intra_refresh=0 / rc_lookahead=50 / rc=2pass / mbtree=1 / bitrate=11500 / ratetol=1.0 / qcomp=0.60 / qpmin=0 / qpmax=69 / qpstep=4 / cplxblur=20.0 / qblur=0.5 / vbv_maxrate=31250 / vbv_bufsize=31250 / nal_hrd=none / filler=0 / ip_ratio=1.40 / aq=1:1.00
Language                                 : Japanese
Default                                  : Yes
Forced                                   : No

Audio
ID                                       : 2
Format                                   : DTS
Format/Info                              : Digital Theater Systems
Codec ID                                 : A_DTS
Duration                                 : 1 h 55 min
Bit rate mode                            : Constant
Bit rate                                 : 1 509 kb/s
Channel(s)                               : 6 channels
Channel layout                           : C L R Ls Rs LFE
Sampling rate                            : 48.0 kHz
Frame rate                               : 93.750 FPS (512 SPF)
Bit depth                                : 24 bits
Compression mode                         : Lossy
Stream size                              : 1.22 GiB (12%)
Language                                 : Japanese
Default                                  : Yes
Forced                                   : No

Text
ID                                       : 3
Format                                   : UTF-8
Codec ID                                 : S_TEXT/UTF8
Codec ID/Info                            : UTF-8 Plain Text
Duration                                 : 1 h 52 min
Bit rate                                 : 30 b/s
Count of elements                        : 851
Stream size                              : 25.3 KiB (0%)
Language                                 : English
Default                                  : Yes
Forced                                   : No

Menu
00:00:00.000                             : en:Chapter 1
00:15:01.791                             : en:Chapter 2
00:34:18.458                             : en:Chapter 3
00:48:23.041                             : en:Chapter 4
01:04:21.208                             : en:Chapter 5
01:16:59.833                             : en:Chapter 6
01:33:06.208                             : en:Chapter 7
01:45:12.625                             : en:Chapter 8

6fcadf986b94f30354edbf8467d4fdb2.png

[/url]916df011dea2601d17d2db45160cdaa1.png

[/url]



                                                                                                                                                                                                        
                                                                                                                                                                                                                                                                                                                                                                                                                                                                                                                                                                                                                                                                                                                                                                                                                                                        
fe14b40aa63aba8f265dcc5dad84af47.torrent (13.77 KB, 下载次数: 0)

回复

使用道具 举报

小黑屋|百度云资源论坛 ( 闽ICP备16005822号-1 )

本网站所有资源来自网络,如无意中侵犯了您的权益,请发邮件至 [email protected],立即清除相关链接

GMT+8, 2022-8-10 03:46 , Processed in 0.070390 second(s), 17 queries .

Powered by Discuz! X3.4

© 2001-2017 Comsenz Inc.

快速回复 返回顶部 返回列表