百度云资源论坛

 找回密码
 立即注册
搜索
热搜: 百度云资源
开启左侧

暗夜博士:莫比亚斯 Morbius.2022.1080p.BluRay.x264-KNiVES 9.31GB

[复制链接]
百度云电影 发表于 2022-6-23 16:04:35 | 显示全部楼层 |阅读模式
暗夜博士:莫比亚斯 Morbius.2022.1080p.BluRay.x264-KNiVES 9.31GB                                                                                                                                                                                                                                                                                                                                                                                                                                                                                                                                        -->
帖子完整标题:暗夜博士:莫比亚斯 Morbius.2022.1080p.BluRay.x264-KNiVES 9.31GB



e231ef8259a6839aff6af68c3c7659fe.jpg



◎标  题 暗夜博士:莫比亚斯
◎译  名 莫比亚斯 / 魔比煞(港) / 魔比斯(台) / 莫比亚斯:暗夜博士 / 吸血鬼莫比亚斯 / Morbius the Living Vampire
◎片  名 Morbius
◎年  代 2022
◎产  地 美国
◎类  别 动作 / 科幻 / 惊悚 / 恐怖 / 冒险
◎语  言 英语 / 西班牙语 / 俄语
◎上映日期 2022-04-01(美国)
◎IMDb评分 5.1/10 (46124人评价)
◎IMDb链接 
◎豆瓣评分 5.9/10 (1678人评价)
◎豆瓣链接 
◎片  长 104分钟
◎导  演 丹尼尔·伊斯皮诺萨 Daniel Espinosa
◎编  剧 马特·萨兹马 Matt Sazama
       伯克·沙普利斯 Burk Sharpless
       罗伊·托马斯 Roy Thomas
       吉尔·凯恩 Gil Kane
◎演  员 杰瑞德·莱托 Jared Leto
       马特·史密斯 Matt Smith
       阿德里娅·阿霍纳 Adria Arjona
       杰瑞德·哈里斯 Jared Harris
       泰瑞斯·吉布森 Tyrese Gibson
       艾尔·马德里加尔 Al Madrigal
       迈克尔·基顿 Michael Keaton
       查理·肖特韦尔 Charlie Shotwell
       汤姆·福布斯 Tom Forbes
       克拉拉·罗萨杰 Clara Rosager
       克里·约翰逊 Corey Johnson
       宾利·卡鲁 Bentley Kalu
       阿奇·雷诺 Archie Renaux
       乔乔·马卡里 Jojo Macari
       亚伯拉罕·波波拉 Abraham Popoola
       巴里·艾尔德 Barry Aird
       克里斯·雷曼 Chris Ryman
       马诺伊·阿南德 Manoj Anand
       卡德罗莎·奥娜·卡罗尔
       露丝·霍洛克斯 Ruth Horrocks
       贝恩·科拉科 Bern Collaço
       丹尼尔·厄根 Daniel Eghan
       菲利普·加斯科因 Philip Gascoyne
       通恰伊·古奈什 Tuncay Gunes
       豪尔赫·莱昂·马丁内斯 Jorge Leon Martinez
       尼克·欧文福特 Nick Owenford
       贾格·帕特尔 Jag Patel
       黛博拉·洛克 Deborah Rock
       阿图尔·夏尔马 Atul Sharma
       戴维娜·西塔拉姆 Davina Sitaram
       吉米·斯达 Jimmy Star
       斯图尔特·惠兰 Stuart Whelan
       亚当·柯林斯 Adam Collins
       迪索·拉莫斯 Diezel Ramos
       J·K·西蒙斯 J.K. Simmons
       伊斯雷尔·鲁兹 Israel Ruiz
       辛迪·埃文斯 Cindy Evans

◎简  介
  《暗夜博士:莫比亚斯》将首次把漫威宇宙中最另类的暗黑超级英雄莫比亚斯呈现于大银幕。由奥斯卡最佳男配得主杰瑞德·莱托饰演的莫比亚斯博士身患一种罕见的血液疾病,命不久矣的他决心找到治疗方法拯救其他同病患者。为此,他孤注一掷试图根除疾病。一开始一切似乎都成功了,但他的内心深处有一股黑暗却无端释放。善念能否压制住邪恶,还是莫比亚斯会屈服于这神秘的欲望?
Video
ID                                       : 1
Format                                   : AVC
Format/Info                              : Advanced Video Codec
Format profile                           :
Format settings                          : CABAC / 5 Ref Frames
Format settings, CABAC                   : Yes
Format settings, Reference frames        : 5 frames
Codec ID                                 : V_MPEG4/ISO/AVC
Duration                                 : 1 h 44 min
Bit rate                                 : 10.2 Mb/s
Width                                    : 1 920 pixels
Height                                   : 804 pixels
Display aspect ratio                     : 2.40:1
Frame rate mode                          : Constant
Frame rate                               : 23.976 (24000/1001/189150) FPS
Color space                              : YUV
Chroma subsampling                       : 4:2:0
Bit depth                                : 8 bits
Scan type                                : Progressive
Bits/(Pixel*Frame)                       : 0.275
Stream size                              : 7.40 GiB (79%)
Writing library                          : x264 core 164 r3094 bfc87b7
Encoding settings                        : cabac=1 / ref=5 / deblock=1:-3:-3 / analyse=0x3:0x133 / me=umh / subme=9 / psy=1 / psy_rd=1.00:0.00 / mixed_ref=1 / me_range=16 / chroma_me=1 / trellis=2 / 8x8dct=1 / cqm=0 / deadzone=21,11 / fast_pskip=0 / chroma_qp_offset=-2 / threads=25 / lookahead_threads=2 / sliced_threads=0 / nr=0 / decimate=1 / interlaced=0 / bluray_compat=0 / constrained_intra=0 / bframes=3 / b_pyramid=2 / b_adapt=2 / b_bias=0 / direct=3 / weightb=1 / open_gop=0 / weightp=2 / keyint=250 / keyint_min=23 / scenecut=40 / intra_refresh=0 / rc_lookahead=60 / rc=crf / mbtree=1 / crf=16.5 / qcomp=0.60 / qpmin=0 / qpmax=69 / qpstep=4 / ip_ratio=1.40 / aq=1:1.00
Language                                 : English
Default                                  : Yes
Forced                                   : No

Audio #1
ID                                       : 2
ID in the original source medium         : 4352 (0x1100)
Format                                   : DTS XLL
Format/Info                              : Digital Theater Systems
Commercial name                          : DTS-HD Master Audio
Codec ID                                 : A_DTS
Duration                                 : 1 h 44 min
Bit rate mode                            : Variable
Bit rate                                 : 2 348 kb/s
Channel(s)                               : 6 channels
Channel layout                           : C L R Ls Rs LFE
Sampling rate                            : 48.0 kHz
Frame rate                               : 93.750 FPS (512 SPF)
Bit depth                                : 16 bits
Compression mode                         : Lossless
Stream size                              : 1.71 GiB (18%)
Language                                 : English
Default                                  : Yes
Forced                                   : No
Original source medium                   : Blu-ray

Audio #2
ID                                       : 3
Format                                   : AAC LC
Format/Info                              : Advanced Audio Codec Low Complexity
Codec ID                                 : A_AAC-2
Duration                                 : 1 h 44 min
Bit rate                                 : 122 kb/s
Channel(s)                               : 2 channels
Channel layout                           : L R
Sampling rate                            : 48.0 kHz
Frame rate                               : 46.875 FPS (1024 SPF)
Compression mode                         : Lossy
Delay relative to video                  : 9 ms
Stream size                              : 91.3 MiB (1%)
Title                                    : commentary
Language                                 : English
Default                                  : No
Forced                                   : No

Text #1
ID                                       : 4
Format                                   : UTF-8
Codec ID                                 : S_TEXT/UTF8
Codec ID/Info                            : UTF-8 Plain Text
Duration                                 : 8 s 967 ms
Bit rate                                 : 73 b/s
Count of elements                        : 2
Stream size                              : 82.0 Bytes (0%)
Language                                 : English
Default                                  : Yes
Forced                                   : Yes

Text #2
ID                                       : 5
ID in the original source medium         : 4608 (0x1200)
Format                                   : PGS
Muxing mode                              : zlib
Codec ID                                 : S_HDMV/PGS
Codec ID/Info                            : Picture based subtitle format used on BDs/HD-DVDs
Duration                                 : 1 h 34 min
Bit rate                                 : 25.3 kb/s
Count of elements                        : 1908
Stream size                              : 17.1 MiB (0%)
Language                                 : English
Default                                  : No
Forced                                   : No
Original source medium                   : Blu-ray

Text #3
ID                                       : 6
ID in the original source medium         : 4609 (0x1201)
Format                                   : PGS
Muxing mode                              : zlib
Codec ID                                 : S_HDMV/PGS
Codec ID/Info                            : Picture based subtitle format used on BDs/HD-DVDs
Duration                                 : 1 h 38 min
Bit rate                                 : 29.0 kb/s
Count of elements                        : 2323
Stream size                              : 20.6 MiB (0%)
Language                                 : English
Default                                  : No
Forced                                   : No
Original source medium                   : Blu-ray

Text #4
ID                                       : 7
ID in the original source medium         : 4610 (0x1202)
Format                                   : PGS
Muxing mode                              : zlib
Codec ID                                 : S_HDMV/PGS
Codec ID/Info                            : Picture based subtitle format used on BDs/HD-DVDs
Duration                                 : 1 h 42 min
Bit rate                                 : 22.0 kb/s
Count of elements                        : 1880
Stream size                              : 16.2 MiB (0%)
Language                                 : Bulgarian
Default                                  : No
Forced                                   : No
Original source medium                   : Blu-ray

Text #5
ID                                       : 8
ID in the original source medium         : 4611 (0x1203)
Format                                   : PGS
Muxing mode                              : zlib
Codec ID                                 : S_HDMV/PGS
Codec ID/Info                            : Picture based subtitle format used on BDs/HD-DVDs
Duration                                 : 1 h 42 min
Bit rate                                 : 20.7 kb/s
Count of elements                        : 1886
Stream size                              : 15.1 MiB (0%)
Language                                 : Croatian
Default                                  : No
Forced                                   : No
Original source medium                   : Blu-ray

Text #6
ID                                       : 9
ID in the original source medium         : 4612 (0x1204)
Format                                   : PGS
Muxing mode                              : zlib
Codec ID                                 : S_HDMV/PGS
Codec ID/Info                            : Picture based subtitle format used on BDs/HD-DVDs
Duration                                 : 1 h 42 min
Bit rate                                 : 21.5 kb/s
Count of elements                        : 1884
Stream size                              : 15.7 MiB (0%)
Language                                 : Czech
Default                                  : No
Forced                                   : No
Original source medium                   : Blu-ray

Text #7
ID                                       : 10
ID in the original source medium         : 4613 (0x1205)
Format                                   : PGS
Muxing mode                              : zlib
Codec ID                                 : S_HDMV/PGS
Codec ID/Info                            : Picture based subtitle format used on BDs/HD-DVDs
Duration                                 : 1 h 35 min
Bit rate                                 : 25.0 kb/s
Count of elements                        : 1936
Stream size                              : 17.1 MiB (0%)
Language                                 : Greek
Default                                  : No
Forced                                   : No
Original source medium                   : Blu-ray

Text #8
ID                                       : 11
ID in the original source medium         : 4614 (0x1206)
Format                                   : PGS
Muxing mode                              : zlib
Codec ID                                 : S_HDMV/PGS
Codec ID/Info                            : Picture based subtitle format used on BDs/HD-DVDs
Duration                                 : 1 h 41 min
Bit rate                                 : 23.4 kb/s
Count of elements                        : 1938
Stream size                              : 16.9 MiB (0%)
Language                                 : Hungarian
Default                                  : No
Forced                                   : No
Original source medium                   : Blu-ray

Text #9
ID                                       : 12
ID in the original source medium         : 4615 (0x1207)
Format                                   : PGS
Muxing mode                              : zlib
Codec ID                                 : S_HDMV/PGS
Codec ID/Info                            : Picture based subtitle format used on BDs/HD-DVDs
Duration                                 : 1 h 41 min
Bit rate                                 : 24.0 kb/s
Count of elements                        : 1942
Stream size                              : 17.4 MiB (0%)
Language                                 : Italian
Default                                  : No
Forced                                   : No
Original source medium                   : Blu-ray

Text #10
ID                                       : 13
ID in the original source medium         : 4616 (0x1208)
Format                                   : PGS
Muxing mode                              : zlib
Codec ID                                 : S_HDMV/PGS
Codec ID/Info                            : Picture based subtitle format used on BDs/HD-DVDs
Duration                                 : 1 h 42 min
Bit rate                                 : 22.8 kb/s
Count of elements                        : 1830
Stream size                              : 16.7 MiB (0%)
Language                                 : Polish
Default                                  : No
Forced                                   : No
Original source medium                   : Blu-ray

Text #11
ID                                       : 14
ID in the original source medium         : 4617 (0x1209)
Format                                   : PGS
Muxing mode                              : zlib
Codec ID                                 : S_HDMV/PGS
Codec ID/Info                            : Picture based subtitle format used on BDs/HD-DVDs
Duration                                 : 1 h 41 min
Bit rate                                 : 22.2 kb/s
Count of elements                        : 1834
Stream size                              : 16.1 MiB (0%)
Language                                 : Romanian
Default                                  : No
Forced                                   : No
Original source medium                   : Blu-ray

Text #12
ID                                       : 15
ID in the original source medium         : 4618 (0x120A)
Format                                   : PGS
Muxing mode                              : zlib
Codec ID                                 : S_HDMV/PGS
Codec ID/Info                            : Picture based subtitle format used on BDs/HD-DVDs
Duration                                 : 1 h 42 min
Bit rate                                 : 21.9 kb/s
Count of elements                        : 1886
Stream size                              : 16.0 MiB (0%)
Language                                 : Serbian
Default                                  : No
Forced                                   : No
Original source medium                   : Blu-ray

Text #13
ID                                       : 16
ID in the original source medium         : 4619 (0x120B)
Format                                   : PGS
Muxing mode                              : zlib
Codec ID                                 : S_HDMV/PGS
Codec ID/Info                            : Picture based subtitle format used on BDs/HD-DVDs
Duration                                 : 1 h 42 min
Bit rate                                 : 19.9 kb/s
Count of elements                        : 1872
Stream size                              : 14.5 MiB (0%)
Language                                 : Slovak
Default                                  : No
Forced                                   : No
Original source medium                   : Blu-ray

Text #14
ID                                       : 17
ID in the original source medium         : 4620 (0x120C)
Format                                   : PGS
Muxing mode                              : zlib
Codec ID                                 : S_HDMV/PGS
Codec ID/Info                            : Picture based subtitle format used on BDs/HD-DVDs
Duration                                 : 1 h 42 min
Bit rate                                 : 19.0 kb/s
Count of elements                        : 1696
Stream size                              : 13.9 MiB (0%)
Language                                 : Slovenian
Default                                  : No
Forced                                   : No
Original source medium                   : Blu-ray

Menu
00:00:00.000                             : en:Chapter 01
00:05:06.932                             : en:Chapter 02
00:10:15.824                             : en:Chapter 03
00:16:57.350                             : en:Chapter 04
00:21:36.754                             : en:Chapter 05
00:27:58.385                             : en:Chapter 06
00:32:58.476                             : en:Chapter 07
00:38:04.157                             : en:Chapter 08
00:43:17.762                             : en:Chapter 09
00:48:58.102                             : en:Chapter 10
00:55:10.557                             : en:Chapter 11
01:01:11.877                             : en:Chapter 12
01:05:28.424                             : en:Chapter 13
01:13:07.049                             : en:Chapter 14
01:20:06.385                             : en:Chapter 15
01:26:32.729                             : en:Chapter 16
01:37:22.795                             : en:Chapter 17

0f17be44d3e980fe7ce252e70e590e9a.jpg





                                                                                                                                                                                                                                                

回复

使用道具 举报

小黑屋|百度云资源论坛 ( 闽ICP备16005822号-1 )

本网站所有资源来自网络,如无意中侵犯了您的权益,请发邮件至 [email protected],立即清除相关链接

GMT+8, 2022-8-10 03:24 , Processed in 0.064873 second(s), 14 queries .

Powered by Discuz! X3.4

© 2001-2017 Comsenz Inc.

快速回复 返回顶部 返回列表