百度云资源论坛

 找回密码
 立即注册
搜索
热搜: 百度云资源
开启左侧

凶恶三人帮 The.Infernal.Trio.1974.FRENCH.1080p.BluRay.x264.FLAC2.0-HANDJOB 8.43G ...

[复制链接]
百度云资源 发表于 2022-6-23 16:04:37 | 显示全部楼层 |阅读模式
凶恶三人帮 The.Infernal.Trio.1974.FRENCH.1080p.BluRay.x264.FLAC2.0-HANDJOB 8.43GB                                                                                                                                                                                                                                                                                                                                                                                                                                                                                                                                        -->
帖子完整标题:凶恶三人帮 The.Infernal.Trio.1974.FRENCH.1080p.BluRay.x264.FLAC2.0-HANDJOB 8.43GB





◎标  题 凶恶三人帮
◎译  名 The Infernal Trio / Trio infernale / 地狱贵夫人
◎片  名 Le trio infernal
◎年  代 1974
◎产  地 法国 / 西德 / 意大利
◎类  别 喜剧 / 恐怖 / 犯罪
◎语  言 法语
◎上映日期 1974
◎IMDb评分 6.3/10 (781人评价)
◎IMDb链接 
◎豆瓣链接 
◎片  长 France: 107 分钟
◎导  演 弗朗西斯·吉罗 Francis Girod
◎编  剧 弗朗西斯·吉罗 Francis Girod
       雅克·鲁菲奥 Jacques Rouffio
◎演  员 Philippe Brizard Philippe Brizard
       雷娜塔·扎明戈 Renata Zamengo
       米歇尔·皮科利 Michel Piccoli
       罗密·施奈德 Romy Schneider
       玛莎·贡斯卡 Mascha Gonska
       莫妮克·塔贝斯 Monique Tarbès
       Jean Rigaux Jean Rigaux
       Adolfo Geri Adolfo Geri
       于贝尔·德尚 Hubert Deschamps
       安德烈亚·费雷奥尔 Andréa Ferréol
       弗朗西斯·克洛德 Francis Claude
       Pierre Dac Pierre Dac
       雅克·道夫曼 Jacques Dorfmann
       Raymond Danon Raymond Danon
       恩尼奥·莫里康内 Ennio Morricone
       Andréas Winding Andréas Winding
       Claude Barrois Claude Barrois
       Jean-Jacques Caziot Jean-Jacques Caziot
       Jacques Fonteray Jacques Fonteray

◎简  介
  Dans la région de Marseille, Me Sarret, un avocat retors et beau parleur, organise de brillantes escroqueries à l'assurance avec la complicité de deux sœurs allemandes devenues ses maîtresses. Le réalisateur s'inspire d'un livre retraçant un fait divers réel pour composer un film à la mise en scène précise, entre humour noir et réalisme glaçant.
Video
ID                                       : 1
Format                                   : AVC
Format/Info                              : Advanced Video Codec
Format profile                           :
Format settings                          : CABAC / 4 Ref Frames
Format settings, CABAC                   : Yes
Format settings, Reference frames        : 4 frames
Codec ID                                 : V_MPEG4/ISO/AVC
Duration                                 : 1 h 44 min
Bit rate                                 : 11.2 Mb/s
Width                                    : 1 790 pixels
Height                                   : 1 080 pixels
Display aspect ratio                     : 5:3
Frame rate mode                          : Constant
Frame rate                               : 24.000 FPS
Color space                              : YUV
Chroma subsampling                       : 4:2:0
Bit depth                                : 8 bits
Scan type                                : Progressive
Bits/(Pixel*Frame)                       : 0.241
Stream size                              : 8.19 GiB (97%)
Writing library                          : x264 core 164 r3065 ae03d92
Encoding settings                        : cabac=1 / ref=4 / deblock=1:-3:-3 / analyse=0x3:0x133 / me=umh / subme=10 / psy=1 / psy_rd=1.00:0.00 / mixed_ref=1 / me_range=32 / chroma_me=1 / trellis=2 / 8x8dct=1 / cqm=0 / deadzone=21,11 / fast_pskip=0 / chroma_qp_offset=-2 / threads=34 / lookahead_threads=8 / sliced_threads=0 / nr=0 / decimate=0 / interlaced=0 / bluray_compat=0 / constrained_intra=0 / bframes=16 / b_pyramid=2 / b_adapt=2 / b_bias=0 / direct=3 / weightb=1 / open_gop=0 / weightp=2 / keyint=240 / keyint_min=24 / scenecut=40 / intra_refresh=0 / rc_lookahead=60 / rc=crf / mbtree=0 / crf=19.5 / qcomp=0.60 / qpmin=0 / qpmax=69 / qpstep=4 / vbv_maxrate=62500 / vbv_bufsize=78125 / crf_max=0.0 / nal_hrd=none / filler=0 / ip_ratio=1.40 / pb_ratio=1.30 / aq=2:1.00
Default                                  : Yes
Forced                                   : No
Color range                              : Limited
Color primaries                          : BT.709
Transfer characteristics                 : BT.709
Matrix coefficients                      : BT.709

Audio
ID                                       : 2
Format                                   : FLAC
Format/Info                              : Free Lossless Audio Codec
Codec ID                                 : A_FLAC
Duration                                 : 1 h 44 min
Bit rate mode                            : Variable
Bit rate                                 : 329 kb/s
Channel(s)                               : 2 channels
Channel layout                           : L R
Sampling rate                            : 48.0 kHz
Frame rate                               : 11.719 FPS (4096 SPF)
Bit depth                                : 16 bits
Compression mode                         : Lossless
Stream size                              : 246 MiB (3%)
Writing library                          : libFLAC 1.2.1 (UTC 2007-09-17)
Language                                 : French
Default                                  : Yes
Forced                                   : No

Text #1
ID                                       : 3
Format                                   : UTF-8
Codec ID                                 : S_TEXT/UTF8
Codec ID/Info                            : UTF-8 Plain Text
Duration                                 : 1 h 42 min
Bit rate                                 : 24 b/s
Count of elements                        : 554
Stream size                              : 18.5 KiB (0%)
Language                                 : English
Default                                  : Yes
Forced                                   : No

Text #2
ID                                       : 4
Format                                   : PGS
Muxing mode                              : zlib
Codec ID                                 : S_HDMV/PGS
Codec ID/Info                            : Picture based subtitle format used on BDs/HD-DVDs
Duration                                 : 1 h 42 min
Bit rate                                 : 13.5 kb/s
Count of elements                        : 1100
Stream size                              : 9.88 MiB (0%)
Language                                 : German
Default                                  : No
Forced                                   : No

Menu
00:00:00.000                             : en:Chapter 1
00:13:43.958                             : en:Chapter 2
00:27:22.000                             : en:Chapter 3
00:39:25.958                             : en:Chapter 4
00:53:09.250                             : en:Chapter 5
01:07:02.667                             : en:Chapter 6
01:18:51.792                             : en:Chapter 7
01:32:53.708                             : en:Chapter 8

fbf9d701769fa868caacf5d8850ea244.png

[/url]414f1883f80ab275b0314b83076f7f11.png

[/url]5aead30d0bdfc2d118b41fa5cacfe13c.png

[/url]



                                                                                                                                                                                                        
                                                                                                                                                                                                                                                                                                                                                                                                                                                                                                                                                                                                                                                                                                                                                                                                                                                        
05b79c140e6cea391adfd4ae6ffdde92.torrent (21.75 KB, 下载次数: 0)

回复

使用道具 举报

小黑屋|百度云资源论坛 ( 闽ICP备16005822号-1 )

本网站所有资源来自网络,如无意中侵犯了您的权益,请发邮件至 [email protected],立即清除相关链接

GMT+8, 2022-8-10 04:10 , Processed in 0.077551 second(s), 17 queries .

Powered by Discuz! X3.4

© 2001-2017 Comsenz Inc.

快速回复 返回顶部 返回列表