百度云资源论坛

 找回密码
 立即注册
搜索
热搜: 百度云资源
开启左侧

美国大师系列之伍迪·艾伦 第二十五季 Woody.Allen.A.Documentary.2011.1080p.BluRay. ...

[复制链接]
百度云电影 发表于 2022-6-23 16:04:40 | 显示全部楼层 |阅读模式
美国大师系列之伍迪·艾伦 第二十五季 Woody.Allen.A.Documentary.2011.1080p.BluRay.x264.DD5.1-NOGRP                                                                                                                                                                                                                                                                                                                                                                                                                                                                                                                                        -->
帖子完整标题:美国大师系列之伍迪·艾伦 第二十五季 Woody.Allen.A.Documentary.2011.1080p.BluRay.x264.DD5.1-NOGRP 16.51GB





◎标  题 美国大师系列之伍迪·艾伦 第二十五季
◎译  名 记录伍迪·艾伦
◎片  名 American Masters: Woody Allen - A Documentary Season 25
◎年  代 2011
◎产  地 美国
◎类  别 纪录片 / 传记
◎语  言 英语
◎上映日期 2011-11-20(美国)
◎IMDb评分 7.7/10 (5179人评价)
◎IMDb链接 
◎豆瓣评分 8.7/10 (3855人评价)
◎豆瓣链接 
◎片  长 192分钟 / 195分钟(DVD)
◎导  演 罗伯特·B·维德 Robert B. Weide
◎编  剧 罗伯特·B·维德 Robert B. Weide
◎演  员 伍迪·艾伦 Woody Allen
       莱蒂·艾伦森 Letty Aronson
       马歇尔·布瑞克曼 Marshall Brickman
       乔什·布洛林 Josh Brolin
       迪克·卡维特 Dick Cavett
       佩内洛普·克鲁兹 Penélope Cruz
       约翰·库萨克 John Cusack
       安东尼奥·班德拉斯 Antonio Banderas
       拉里·戴维 Larry David
       F.X. Feeney F.X. Feeney
       赛斯·格林 Seth Green
       罗伯特·格林赫特 Robert Greenhut
       玛瑞儿·海明威 Mariel Hemingway
       安妮特·英斯多夫 Brigitte Roüan
       查尔斯·H·约菲 Charles H. Joffe
       斯嘉丽·约翰逊 Scarlett Johansson
       朱莉·卡夫娜 Julie Kavner
       黛安·基顿 Diane Keaton
       Nettie Konigsberg Nettie Konigsberg
       马丁·兰道 Martin Landau
       露易丝·拉塞尔 Louise Lasser
       莱纳德·马尔廷 Leonard Maltin
       道格拉斯·麦克格兰斯 Douglas McGrath
       西恩·潘 Sean Penn
       托尼·罗伯茨 Tony Roberts
       克里斯·洛克 Chris Rock
       杰克·罗林斯 Jack Rollins
       米基·罗斯 Mickey Rose
       理查德·什克尔 Richard Schickel
       马丁·斯科塞斯 Martin Scorsese
       米拉·索维诺 Mira Sorvino
       茱莉叶·泰勒 Juliet Taylor
       斯蒂芬·特南鲍姆 Stephen Tenenbaum
       娜奥米·沃茨 Naomi Watts
       黛安·韦斯特 Dianne Wiest
       戈登·威利斯 Gordon Willis
       欧文·威尔逊 Owen Wilson
       维尔莫什·日格蒙德 Vilmos Zsigmond
       汤姆·布罗考 Tom Brokaw
       席德·西泽 Sid Caesar
       John Daly John Daly
       大卫·弗罗斯特 David Frost
       鲁思·戈登 Ruth Gordon
       Bryant Gumbel Bryant Gumbel
       吉娜·劳洛勃丽吉达 Gina Lollobrigida
       德里克·尼莫 Derek Nimmo
       宋宜·普列文 Soon-Yi Previn
        Henrik Lax
       夏洛特·兰普林 Charlotte Rampling

◎简  介
  一转眼,伍迪艾伦(Woody Allen)这个老头已经陪伴我们度过了数十个年头,从黑发到白发,从壮年到老年,我们作为观众,几乎可以说是在电影里目睹了伍迪艾伦的整个后半生。从最初的无厘头喜剧《傻瓜入狱记》到最新的爱情小品《爱在罗马》,伍迪艾伦在电影中完成了对人生和爱情的讨论和探究。                                    
                                在自己的电影中,伍迪艾伦扮演过无数个让人啼笑皆非的角色,然而,在现实中,他究竟是个怎样的人,我们无从而知。同时,不时传出的花边新闻也让这个在影片里絮絮叨叨的男人的身影愈加的模糊起来。影片采访了这些年来和伍迪艾伦合作过的演员和导演们,通过他们的语言拼凑出了一个陌生但真实的伍迪艾伦。
Video
ID                                       : 1
Format                                   : AVC
Format/Info                              : Advanced Video Codec
Format profile                           :
Format settings                          : CABAC / 4 Ref Frames
Format settings, CABAC                   : Yes
Format settings, Reference frames        : 4 frames
Codec ID                                 : V_MPEG4/ISO/AVC
Duration                                 : 3 h 12 min
Bit rate                                 : 11.8 Mb/s
Width                                    : 1 920 pixels
Height                                   : 1 080 pixels
Display aspect ratio                     : 16:9
Frame rate mode                          : Constant
Frame rate                               : 23.976 (24000/1001/189150) FPS
Color space                              : YUV
Chroma subsampling                       : 4:2:0
Bit depth                                : 8 bits
Scan type                                : Progressive
Bits/(Pixel*Frame)                       : 0.238
Stream size                              : 15.9 GiB (96%)
Writing library                          : x264 core 164 r3065 ae03d92
Encoding settings                        : cabac=1 / ref=4 / deblock=1:-3:-3 / analyse=0x3:0x133 / me=umh / subme=10 / psy=1 / psy_rd=1.00:0.00 / mixed_ref=1 / me_range=32 / chroma_me=1 / trellis=2 / 8x8dct=1 / cqm=0 / deadzone=21,11 / fast_pskip=0 / chroma_qp_offset=-2 / threads=24 / lookahead_threads=6 / sliced_threads=0 / nr=0 / decimate=0 / interlaced=0 / bluray_compat=0 / constrained_intra=0 / bframes=16 / b_pyramid=2 / b_adapt=2 / b_bias=0 / direct=3 / weightb=1 / open_gop=0 / weightp=2 / keyint=240 / keyint_min=24 / scenecut=40 / intra_refresh=0 / rc_lookahead=60 / rc=crf / mbtree=0 / crf=18.2 / qcomp=0.60 / qpmin=0 / qpmax=69 / qpstep=4 / vbv_maxrate=62500 / vbv_bufsize=78125 / crf_max=0.0 / nal_hrd=none / filler=0 / ip_ratio=1.40 / pb_ratio=1.30 / aq=2:1.00
Language                                 : English
Default                                  : Yes
Forced                                   : No
Color range                              : Limited
Color primaries                          : BT.709
Transfer characteristics                 : BT.709
Matrix coefficients                      : BT.709

Audio
ID                                       : 2
Format                                   : AC-3
Format/Info                              : Audio Coding 3
Commercial name                          : Dolby Digital
Codec ID                                 : A_AC3
Duration                                 : 3 h 12 min
Bit rate mode                            : Constant
Bit rate                                 : 448 kb/s
Channel(s)                               : 6 channels
Channel layout                           : L R C LFE Ls Rs
Sampling rate                            : 48.0 kHz
Frame rate                               : 31.250 FPS (1536 SPF)
Compression mode                         : Lossy
Stream size                              : 617 MiB (4%)
Language                                 : English
Service kind                             : Complete Main
Default                                  : Yes
Forced                                   : No

Menu
00:00:00.000                             : :Who Is Woody Allen?
00:04:59.090                             : :Allen Stewart Konigsberg
00:09:18.391                             : :Nettie & Martin
00:16:50.760                             : :Mondays At The Carlyle
00:20:02.076                             : :Woody The Gag-Writer
00:25:51.341                             : :Woody The Stand-Up
00:33:07.152                             : :The Bitter End
00:37:46.014                             : :Woody The TV Star
00:43:17.470                             : :What\'s New Pussycat?
00:46:03.094                             : :Take The Money And Run
00:51:22.705                             : iane Keaton
00:55:48.220                             : :Woody Goes Bananas
01:00:53.400                             : :Woody & Letty/School
01:04:32.452                             : :Sleeper
01:09:54.315                             : :Bergman & Love & Death
01:15:05.501                             : :Annie Hall
01:27:54.102                             : :Interiors
01:31:04.292                             : :Manhattan
01:42:39.987                             : :Stardust Memories
01:49:37.612                             : :Cosmopolitan Woody
01:54:59.058                             : :Endless Ideas
01:59:26.450                             : :Woody & Mia
02:04:35.175                             : :Zelig / The Purple Rose of Cairo
02:08:18.106                             : :Casting
02:14:06.288                             : :Hannah And Her Sisters
02:19:08.506                             : :Crimes & Misdemeanors
02:24:47.637                             : :Soon-Yi
02:31:39.882                             : :Bullets Over Broadway
02:39:57.921                             : :Woody\'s Directing Style
02:46:55.547                             : :Everyone Says I Love You
02:52:59.327                             : :From London To Barcelona
03:00:26.648                             : :Cannes Is A Nightmare
03:07:13.096                             : :Midnight In Paris

af54f0185477904ef9fbecd5a53321f4.png

[/url]1ff817850454ca3527a8ca364488fe57.png

[/url]02741cce25334ac01a00e0b38261035a.png

[/url]



                                                                                                                                                                                                        
                                                                                                                                                                                                                                                                                                                                                                                                                                                                                                                                                                                                                                                                                                                                                                                                                                                        
b42341266b56ff39e43037ae2c45e369.torrent (21.28 KB, 下载次数: 0)

回复

使用道具 举报

小黑屋|百度云资源论坛 ( 闽ICP备16005822号-1 )

本网站所有资源来自网络,如无意中侵犯了您的权益,请发邮件至 [email protected],立即清除相关链接

GMT+8, 2022-8-10 04:59 , Processed in 0.098121 second(s), 17 queries .

Powered by Discuz! X3.4

© 2001-2017 Comsenz Inc.

快速回复 返回顶部 返回列表