百度云资源论坛

 找回密码
 立即注册
搜索
热搜: 百度云资源
开启左侧

冷河 So.Cold.the.River.2022.1080p.BluRay.x264-GETiT 4.64GB

[复制链接]
百度云资源 发表于 2022-6-23 16:04:42 | 显示全部楼层 |阅读模式
冷河 So.Cold.the.River.2022.1080p.BluRay.x264-GETiT 4.64GB                                                                                                                                                                                                                                                                                                                                                                                                                                                                                                                                        -->
帖子完整标题:冷河 So.Cold.the.River.2022.1080p.BluRay.x264-GETiT 4.64GB



f87f46f9d2b1f5a8a0c0527e0aa1cf4e.jpg



◎译  名 冷河 / 邪恶冰冷地
◎片  名 So Cold the River
◎年  代 2022
◎产  地 美国
◎类  别 剧情 / 惊悚 / 恐怖
◎语  言 英语
◎上映日期 2022-03-25(美国)
◎IMDb链接 
◎豆瓣链接 
◎导  演 保罗·舒尔伯格 Paul Shoulberg (id:1445557)
◎编  剧 保罗·舒尔伯格 Paul Shoulberg (id:1445557)
◎演  员 贝瑟妮·乔伊·盖里奥迪 Bethany Joy Galeotti (id:1121236)
       阿莱西娅·雷纳 Alysia Reiner (id:1009582)
       凯蒂·萨里费 Katie Sarife (id:1418736)

◎简  介
  A documentary filmmaker's research on a town's mysterious benefactor unearths an unexplained evil while staying at a local resort.
Video
ID                                       : 1
Format                                   : AVC
Format/Info                              : Advanced Video Codec
Format profile                           :
Format settings                          : CABAC / 4 Ref Frames
Format settings, CABAC                   : Yes
Format settings, Reference frames        : 4 frames
Codec ID                                 : V_MPEG4/ISO/AVC
Duration                                 : 1 h 34 min
Bit rate                                 : 4 968 kb/s
Width                                    : 1 920 pixels
Height                                   : 960 pixels
Display aspect ratio                     : 2.000
Frame rate mode                          : Constant
Frame rate                               : 24.000 FPS
Color space                              : YUV
Chroma subsampling                       : 4:2:0
Bit depth                                : 8 bits
Scan type                                : Progressive
Bits/(Pixel*Frame)                       : 0.112
Stream size                              : 3.29 GiB (71%)
Writing library                          : x264 core 164 r3095 baee400
Encoding settings                        : cabac=1 / ref=4 / deblock=1:-3:-3 / analyse=0x3:0x133 / me=umh / subme=9 / psy=1 / psy_rd=1.00:0.00 / mixed_ref=1 / me_range=16 / chroma_me=1 / trellis=2 / 8x8dct=1 / cqm=0 / deadzone=21,11 / fast_pskip=0 / chroma_qp_offset=-2 / threads=24 / lookahead_threads=2 / sliced_threads=0 / nr=0 / decimate=1 / interlaced=0 / bluray_compat=0 / constrained_intra=0 / bframes=3 / b_pyramid=2 / b_adapt=2 / b_bias=0 / direct=3 / weightb=1 / open_gop=0 / weightp=2 / keyint=250 / keyint_min=24 / scenecut=40 / intra_refresh=0 / rc_lookahead=60 / rc=crf / mbtree=1 / crf=17.0 / qcomp=0.60 / qpmin=0 / qpmax=69 / qpstep=4 / ip_ratio=1.40 / aq=3:1.00
Default                                  : Yes
Forced                                   : No
Color range                              : Limited
Matrix coefficients                      : BT.709

Audio
ID                                       : 2
Format                                   : DTS XBR
Format/Info                              : Digital Theater Systems
Commercial name                          : DTS-HD High Resolution Audio
Codec ID                                 : A_DTS
Duration                                 : 1 h 34 min
Bit rate mode                            : Constant
Bit rate                                 : 2 046 kb/s
Channel(s)                               : 6 channels
Channel layout                           : C L R Ls Rs LFE
Sampling rate                            : 48.0 kHz
Frame rate                               : 93.750 FPS (512 SPF)
Bit depth                                : 16 bits
Compression mode                         : Lossy
Stream size                              : 1.35 GiB (29%)
Language                                 : English
Default                                  : Yes
Forced                                   : No

Menu
00:00:00.000                             : en:00:00:00.000
00:08:54.500                             : en:00:08:54.500
00:16:22.500                             : en:00:16:22.500
00:24:54.708                             : en:00:24:54.708
00:30:48.042                             : en:00:30:48.042
00:38:39.667                             : en:00:38:39.667
00:48:45.333                             : en:00:48:45.333
00:55:31.250                             : en:00:55:31.250
01:04:04.042                             : en:01:04:04.042
01:12:10.333                             : en:01:12:10.333
01:18:14.458                             : en:01:18:14.458
01:26:52.333                             : en:01:26:52.333

8ea2ec9771321a3bcaf8188bd2414858.jpg





                                                                                                                                                                                                        
                                                                                                                                                                                                                                                                                                                                                                                                                                                                                                                                                                                                                                                                                                                                                                                                                                                        
6c98faf5ea97ab2fd18b1abd13c97e39.torrent (23.89 KB, 下载次数: 0)

回复

使用道具 举报

小黑屋|百度云资源论坛 ( 闽ICP备16005822号-1 )

本网站所有资源来自网络,如无意中侵犯了您的权益,请发邮件至 [email protected],立即清除相关链接

GMT+8, 2022-8-8 09:31 , Processed in 0.073055 second(s), 17 queries .

Powered by Discuz! X3.4

© 2001-2017 Comsenz Inc.

快速回复 返回顶部 返回列表