百度云资源论坛

 找回密码
 立即注册
搜索
热搜: 百度云资源
开启左侧

杨之后 After.Yang.2021.1080p.BluRay.x264.DTS-MT 13.15GB

[复制链接]
百度云资源 发表于 2022-6-23 16:04:44 | 显示全部楼层 |阅读模式
杨之后 After.Yang.2021.1080p.BluRay.x264.DTS-MT 13.15GB                                                                                                                                                                                                                                                                                                                                                                                                                                                                                                                                        -->
帖子完整标题:杨之后 After.Yang.2021.1080p.BluRay.x264.DTS-MT 13.15GB



0f2dce9571b7de5e502a21f7b022a6f9.jpg



◎译  名 杨之后 / 向杨说再见
◎片  名 After Yang
◎年  代 2021
◎产  地 美国
◎类  别 剧情 / 科幻
◎语  言 英语
◎上映日期 2021-07-08(戛纳电影节) / 2022-03-04(美国)
◎IMDb链接 
◎豆瓣评分 7.4/10 (9469人评价)
◎豆瓣链接 
◎片  长 95分钟
◎导  演 郭共达 Kogonada (id:1368714)
◎编  剧 郭共达 Kogonada (id:1368714)
       亚历山大·温斯坦 Alexander Weinstein (id:1468899)
◎演  员 科林·法瑞尔 Colin Farrell (id:1084255)
       朱迪·特纳-史密斯 Jodie Turner-Smith (id:1397699)
       贾斯汀·闵 Justin H. Min (id:1410812)
       里特奇·科斯特 Ritchie Coster (id:1071529)
       萨莉塔·乔德霍里 Sarita Choudhury (id:1055364)
       小克利夫顿·克林斯 Clifton Collins Jr. (id:1019033)
       海莉·露·理查森 Haley Lu Richardson (id:1337910)
       王李 Lee Wong (id:1361445)
       布瑞特·迪尔 Brett Dier (id:1230019)
       爱娃林德丽 Eve Lindley (id:1360140)
       娜娜·门萨 Nana Mensah (id:1395806)
       黛博拉赫德瓦尔 Deborah Hedwall (id:1101836)
       泰勒·奥特加 Taylor Ortega (id:1457053)
       松宫飞鸟 Aska Matsumiya (id:1468912)
       本杰明·勒布 Benjamin Loeb (id:1468913)
       郭共达 Kogonada (id:1368714)

◎简  介
  杰克(柯林·法瑞尔 Colin Farrell 饰)和卡雅(朱迪·特纳-史密斯 Jodie Turner-Smith 饰)收养了名叫美香的华裔小姑娘,为了美香能够接触属于自己种族的文化,杰克购买了仿生机器人杨(贾斯汀·闵 Justin H. Min 饰)。之后,杨成了美香最好也是最信赖的朋友,同时也成为了这个家庭里不可或缺的一份子。                                    
                                随着时间的推移,米卡渐渐长大,而杨也因为零件老化等问题,机能发生了故障。杰克想要找人修好杨,但因为杨是一款“二手”的机器人,所以自然没有任何的售后保障。杰克通过特殊的手段获得了记录了杨自出厂以来全部记忆的内存条,在播放这些画面的过程中,杰克发现了杨的一些不为人知的记忆。

◎获奖情况 (共2项)
  第74届戛纳电影节 (2021)
  一种关注单元 一种关注大奖(提名)
   └──郭共达 (id:1368714)

  第38届圣丹斯电影节 (2022)
  艾尔弗雷德·斯隆奖
   └──郭共达 (id:1368714)

Video
ID                                       : 1
Format                                   : AVC
Format/Info                              : Advanced Video Codec
Format profile                           :
Format settings                          : CABAC / 4 Ref Frames
Format settings, CABAC                   : Yes
Format settings, Reference frames        : 4 frames
Codec ID                                 : V_MPEG4/ISO/AVC
Duration                                 : 1 h 35 min
Bit rate                                 : 18.1 Mb/s
Width                                    : 1 920 pixels
Height                                   : 1 080 pixels
Display aspect ratio                     : 16:9
Frame rate mode                          : Constant
Frame rate                               : 23.976 (24000/1001/189150) FPS
Color space                              : YUV
Chroma subsampling                       : 4:2:0
Bit depth                                : 8 bits
Scan type                                : Progressive
Bits/(Pixel*Frame)                       : 0.365
Stream size                              : 12.1 GiB (92%)
Writing library                          : x264 core 157 r2938 2b00a84  Mod
Encoding settings                        : cabac=1 / ref=4 / deblock=1:-3:-3 / analyse=0x3:0x133 / me=umh / subme=10 / psy=1 / psy_rd=1.05:0.00 / mixed_ref=1 / me_range=32 / chroma_me=1 / trellis=2 / 8x8dct=1 / cqm=0 / deadzone=21,11 / fast_pskip=0 / chroma_qp_offset=-2 / threads=12 / lookahead_threads=2 / sliced_threads=0 / nr=0 / decimate=0 / interlaced=0 / bluray_compat=0 / constrained_intra=0 / bframes=8 / b_pyramid=2 / b_adapt=2 / b_bias=0 / direct=3 / weightb=1 / open_gop=0 / weightp=2 / keyint=250 / keyint_min=24 / scenecut=40 / intra_refresh=0 / rc_lookahead=250 / rc=crf / mbtree=0 / crf=16.8 / qcomp=0.60 / qpmin=0 / qpmax=69 / qpstep=4 / vbv_maxrate=62500 / vbv_bufsize=78125 / crf_max=0.0 / nal_hrd=none / filler=0 / ip_ratio=1.30 / pb_ratio=1.20 / aq=3:0.80
Language                                 : English
Default                                  : Yes
Forced                                   : No
Color range                              : Limited
Color primaries                          : BT.709
Matrix coefficients                      : BT.709

Audio
ID                                       : 2
Format                                   : DTS
Format/Info                              : Digital Theater Systems
Codec ID                                 : A_DTS
Duration                                 : 1 h 35 min
Bit rate mode                            : Constant
Bit rate                                 : 1 509 kb/s
Channel(s)                               : 6 channels
Channel layout                           : C L R Ls Rs LFE
Sampling rate                            : 48.0 kHz
Frame rate                               : 93.750 FPS (512 SPF)
Bit depth                                : 24 bits
Compression mode                         : Lossy
Stream size                              : 1.01 GiB (8%)
Language                                 : English
Default                                  : Yes
Forced                                   : No

Text #1
ID                                       : 3
Format                                   : UTF-8
Codec ID                                 : S_TEXT/UTF8
Codec ID/Info                            : UTF-8 Plain Text
Duration                                 : 1 h 29 min
Bit rate                                 : 45 b/s
Count of elements                        : 987
Stream size                              : 29.7 KiB (0%)
Language                                 : English
Default                                  : Yes
Forced                                   : No

Text #2
ID                                       : 4
Format                                   : UTF-8
Codec ID                                 : S_TEXT/UTF8
Codec ID/Info                            : UTF-8 Plain Text
Duration                                 : 1 h 35 min
Bit rate                                 : 47 b/s
Count of elements                        : 1086
Stream size                              : 33.2 KiB (0%)
Title                                    : SDH
Language                                 : English
Default                                  : No
Forced                                   : No

Menu
00:00:00.000                             : en:Chapter 01
00:07:13.266                             : en:Chapter 02
00:10:50.817                             : en:Chapter 03
00:15:23.047                             : en:Chapter 04
00:21:05.723                             : en:Chapter 05
00:28:36.214                             : en:Chapter 06
00:33:57.077                             : en:Chapter 07
00:41:37.203                             : en:Chapter 08
00:45:41.739                             : en:Chapter 09
00:52:20.763                             : en:Chapter 10
00:59:42.829                             : en:Chapter 11
01:04:51.721                             : en:Chapter 12
01:08:40.408                             : en:Chapter 13
01:13:07.717                             : en:Chapter 14
01:18:03.095                             : en:Chapter 15
01:23:21.163                             : en:Chapter 16

daed06ffc639d3ff59e8fd13ac469584.png

[/url]



                                                                                                                                                                                                        
                                                                                                                                                                                                                                                                                                                                                                                                                                                                                                                                                                                                                                                                                                                                                                                                                                                        
cc1eda42252cf356d166d0aca960945e.torrent (17.04 KB, 下载次数: 0)

回复

使用道具 举报

小黑屋|百度云资源论坛 ( 闽ICP备16005822号-1 )

本网站所有资源来自网络,如无意中侵犯了您的权益,请发邮件至 [email protected],立即清除相关链接

GMT+8, 2022-8-10 05:03 , Processed in 0.070528 second(s), 17 queries .

Powered by Discuz! X3.4

© 2001-2017 Comsenz Inc.

快速回复 返回顶部 返回列表