百度云资源论坛

 找回密码
 立即注册
搜索
热搜: 百度云资源
开启左侧

蛇杀手 Stanley.1972.1080p.BluRay.x264.DTS-FGT 9.75GB

[复制链接]
百度云电影 发表于 2022-6-23 16:04:46 | 显示全部楼层 |阅读模式
蛇杀手 Stanley.1972.1080p.BluRay.x264.DTS-FGT 9.75GB                                                                                                                                                                                                                                                                                                                                                                                                                                                                                                                                        -->
帖子完整标题:蛇杀手 Stanley.1972.1080p.BluRay.x264.DTS-FGT 9.75GB



494c16d2f68114b6bc628a2d80761c74.jpg



◎译  名 蛇杀手
◎片  名 Stanley
◎年  代 1972
◎产  地 美国
◎类  别 恐怖
◎语  言 英语
◎上映日期 1972
◎IMDb链接 
◎豆瓣链接 
◎片  长 108 分钟
◎导  演 威廉·格雷菲 William Grefe (id:1048541)
◎编  剧 威廉·格雷菲 William Grefe (id:1048541)
◎演  员 克里斯·罗宾逊 Chris Robinson (id:1141642)
       阿历克斯·罗克 Alex Rocco (id:1032109)
       Steve Alaimo Steve Alaimo (id:1056814)
       Mel Pape Mel Pape (id:1128336)
       威廉姆马奎斯 William Marquez (id:1124969)
       马克·哈里斯 Mark Harris (id:1093017)
       威廉·格雷菲 William Grefe (id:1048541)
       Clifford H. Poland Jr. Clifford H. Poland Jr. (id:1024515)
Video
ID                                       : 1
Format                                   : AVC
Format/Info                              : Advanced Video Codec
Format profile                           :
Format settings                          : CABAC / 4 Ref Frames
Format settings, CABAC                   : Yes
Format settings, Reference frames        : 4 frames
Codec ID                                 : V_MPEG4/ISO/AVC
Duration                                 : 1 h 47 min
Bit rate                                 : 11.5 Mb/s
Width                                    : 1 920 pixels
Height                                   : 1 036 pixels
Display aspect ratio                     : 1.85:1
Frame rate mode                          : Constant
Frame rate                               : 23.976 (24000/1001/189150) FPS
Color space                              : YUV
Chroma subsampling                       : 4:2:0
Bit depth                                : 8 bits
Scan type                                : Progressive
Bits/(Pixel*Frame)                       : 0.241
Stream size                              : 8.62 GiB (88%)
Writing library                          : x264 core 148 r2795M aaa9aa8
Encoding settings                        : cabac=1 / ref=4 / deblock=1:-2:-2 / analyse=0x3:0x113 / me=umh / subme=9 / psy=1 / psy_rd=1.00:0.15 / mixed_ref=1 / me_range=16 / chroma_me=1 / trellis=2 / 8x8dct=1 / cqm=0 / deadzone=21,11 / fast_pskip=1 / chroma_qp_offset=-3 / threads=24 / lookahead_threads=3 / sliced_threads=0 / nr=0 / decimate=1 / interlaced=0 / bluray_compat=0 / constrained_intra=0 / bframes=3 / b_pyramid=2 / b_adapt=1 / b_bias=0 / direct=3 / weightb=1 / open_gop=0 / weightp=2 / keyint=250 / keyint_min=25 / scenecut=40 / intra_refresh=0 / rc_lookahead=50 / rc=2pass / mbtree=1 / bitrate=11500 / ratetol=1.0 / qcomp=0.60 / qpmin=0 / qpmax=69 / qpstep=4 / cplxblur=20.0 / qblur=0.5 / vbv_maxrate=31250 / vbv_bufsize=31250 / nal_hrd=none / filler=0 / ip_ratio=1.40 / aq=1:1.00
Language                                 : English
Default                                  : Yes
Forced                                   : No

Audio
ID                                       : 2
Format                                   : DTS
Format/Info                              : Digital Theater Systems
Codec ID                                 : A_DTS
Duration                                 : 1 h 47 min
Bit rate mode                            : Constant
Bit rate                                 : 1 509 kb/s
Channel(s)                               : 2 channels
Channel layout                           : L R
Sampling rate                            : 48.0 kHz
Frame rate                               : 93.750 FPS (512 SPF)
Bit depth                                : 16 bits
Compression mode                         : Lossy
Stream size                              : 1.13 GiB (12%)
Language                                 : English
Default                                  : Yes
Forced                                   : No

Text #1
ID                                       : 3
Format                                   : UTF-8
Codec ID                                 : S_TEXT/UTF8
Codec ID/Info                            : UTF-8 Plain Text
Duration                                 : 1 h 46 min
Bit rate                                 : 36 b/s
Count of elements                        : 1041
Stream size                              : 28.7 KiB (0%)
Language                                 : English
Default                                  : Yes
Forced                                   : No

Text #2
ID                                       : 4
Format                                   : UTF-8
Codec ID                                 : S_TEXT/UTF8
Codec ID/Info                            : UTF-8 Plain Text
Duration                                 : 1 h 46 min
Bit rate                                 : 39 b/s
Count of elements                        : 1179
Stream size                              : 31.1 KiB (0%)
Title                                    : SDH
Language                                 : English
Default                                  : No
Forced                                   : No

Menu
00:00:00.000                             : en:Chapter 01
00:17:49.568                             : en:Chapter 02
00:35:49.647                             : en:Chapter 03
00:51:37.094                             : en:Chapter 04
01:12:17.833                             : en:Chapter 05
01:32:29.544                             : en:Chapter 06

03cbccdc20a6dfad560cecd3606506e2.png

[/url]



                                                                                                                                                                                                        
                                                                                                                                                                                                                                                                                                                                                                                                                                                                                                                                                                                                                                                                                                                                                                                                                                                        
dc323196bebef2fbdfe0d30dcac2069d.torrent (24.99 KB, 下载次数: 0)

回复

使用道具 举报

小黑屋|百度云资源论坛 ( 闽ICP备16005822号-1 )

本网站所有资源来自网络,如无意中侵犯了您的权益,请发邮件至 [email protected],立即清除相关链接

GMT+8, 2022-8-10 03:51 , Processed in 0.073481 second(s), 17 queries .

Powered by Discuz! X3.4

© 2001-2017 Comsenz Inc.

快速回复 返回顶部 返回列表