百度云资源论坛

 找回密码
 立即注册
搜索
热搜: 百度云资源
开启左侧

心慌方 Cube.2021.JAPANESE.1080p.BluRay.x264.DTS-FGT 9.85GB

[复制链接]
百度云电影 发表于 2022-6-23 16:04:48 | 显示全部楼层 |阅读模式
心慌方 Cube.2021.JAPANESE.1080p.BluRay.x264.DTS-FGT 9.85GB                                                                                                                                                                                                                                                                                                                                                                                                                                                                                                                                        -->
帖子完整标题:心慌方 Cube.2021.JAPANESE.1080p.BluRay.x264.DTS-FGT 9.85GB



2d478ca2575ff66c7945020bf75e32d3.jpg



◎译  名 心慌方 / 心慌方 日本版 / 死亡立方(港) / 超栗方杀阵(台) / CUBE异次元杀阵:最后一次进去 / CUBE
◎片  名 CUBE 一度入ったら、最後
◎年  代 2021
◎产  地 日本
◎类  别 悬疑 / 惊悚
◎语  言 日语
◎上映日期 2021-10-22(日本)
◎IMDb链接 
◎豆瓣评分 4.2/10 (4300人评价)
◎豆瓣链接 
◎片  长 108分钟
◎导  演 清水康彦 Yasuhiko Shimizu (id:1450830)
◎编  剧 徳尾浩司 Koji Tokuo (id:1372247)
◎演  员 菅田将晖 Masaki Suda (id:1274418)
       杏 Anne (id:1260550)
       冈田将生 Masaki Okada (id:1274453)
       斋藤工 Takumi Sait? (id:1025531)
       吉田钢太郎 K?tar? Yoshida (id:1004817)
       田代辉 Tashiro Hikaru (id:1467817)
       柄本时生 Tokio Emoto (id:1313539)

◎简  介
  #心慌方翻拍日本版#《综艺》报道:著名科幻悬疑惊悚片《心慌方/异次元杀阵》翻拍日本版。菅田将晖、冈田将生、斋藤工、杏、吉田健太郎 、田代辉出演六个主人公,他们发现被困在一座神秘复杂的迷宫中,面临……清水康彦(《万力》)执导,松竹发行,去年10月、11月已拍完,定档今年10月22日日本上映。
Video
ID                                       : 1
Format                                   : AVC
Format/Info                              : Advanced Video Codec
Format profile                           :
Format settings                          : CABAC / 4 Ref Frames
Format settings, CABAC                   : Yes
Format settings, Reference frames        : 4 frames
Codec ID                                 : V_MPEG4/ISO/AVC
Duration                                 : 1 h 48 min
Bit rate                                 : 11.5 Mb/s
Width                                    : 1 920 pixels
Height                                   : 1 036 pixels
Display aspect ratio                     : 1.85:1
Frame rate mode                          : Constant
Frame rate                               : 24.000 FPS
Color space                              : YUV
Chroma subsampling                       : 4:2:0
Bit depth                                : 8 bits
Scan type                                : Progressive
Bits/(Pixel*Frame)                       : 0.241
Stream size                              : 8.70 GiB (88%)
Writing library                          : x264 core 148 r2795M aaa9aa8
Encoding settings                        : cabac=1 / ref=4 / deblock=1:-2:-2 / analyse=0x3:0x113 / me=umh / subme=9 / psy=1 / psy_rd=1.00:0.15 / mixed_ref=1 / me_range=16 / chroma_me=1 / trellis=2 / 8x8dct=1 / cqm=0 / deadzone=21,11 / fast_pskip=1 / chroma_qp_offset=-3 / threads=24 / lookahead_threads=3 / sliced_threads=0 / nr=0 / decimate=1 / interlaced=0 / bluray_compat=0 / constrained_intra=0 / bframes=3 / b_pyramid=2 / b_adapt=1 / b_bias=0 / direct=3 / weightb=1 / open_gop=0 / weightp=2 / keyint=250 / keyint_min=25 / scenecut=40 / intra_refresh=0 / rc_lookahead=50 / rc=2pass / mbtree=1 / bitrate=11500 / ratetol=1.0 / qcomp=0.60 / qpmin=0 / qpmax=69 / qpstep=4 / cplxblur=20.0 / qblur=0.5 / vbv_maxrate=31250 / vbv_bufsize=31250 / nal_hrd=none / filler=0 / ip_ratio=1.40 / aq=1:1.00
Language                                 : Japanese
Default                                  : Yes
Forced                                   : No

Audio
ID                                       : 2
Format                                   : DTS ES
Format/Info                              : Digital Theater Systems
Commercial name                          : DTS-ES Matrix
Codec ID                                 : A_DTS
Duration                                 : 1 h 48 min
Bit rate mode                            : Constant
Bit rate                                 : 1 509 kb/s
Channel(s)                               : 6 channels
Channel(s)_Original                      : 7 channels
ChannelLayout_Original                   : C L R Ls Rs Cb LFE
Sampling rate                            : 48.0 kHz
Frame rate                               : 93.750 FPS (512 SPF)
Bit depth                                : 24 bits
Compression mode                         : Lossy
Stream size                              : 1.14 GiB (12%)
Language                                 : Japanese
Default                                  : Yes
Forced                                   : No

Text
ID                                       : 3
Format                                   : UTF-8
Codec ID                                 : S_TEXT/UTF8
Codec ID/Info                            : UTF-8 Plain Text
Duration                                 : 1 h 44 min
Bit rate                                 : 17 b/s
Count of elements                        : 646
Stream size                              : 13.3 KiB (0%)
Language                                 : English
Default                                  : Yes
Forced                                   : No

Menu
00:00:00.000                             : en:Chapter 01
00:09:34.208                             : en:Chapter 02
00:21:06.417                             : en:Chapter 03
00:28:51.708                             : en:Chapter 04
00:37:32.125                             : en:Chapter 05
00:47:59.042                             : en:Chapter 06
00:53:50.333                             : en:Chapter 07
01:02:44.417                             : en:Chapter 08
01:09:19.167                             : en:Chapter 09
01:22:20.167                             : en:Chapter 10
01:28:20.792                             : en:Chapter 11
01:44:57.875                             : en:Chapter 12

f19d68bf175202d6e9669050e8b82b1c.png

[/url]c43801cf3b1debf9347c2c1c60413df6.png

[/url]



                                                                                                                                                                                                        
                                                                                                                                                                                                                                                                                                                                                                                                                                                                                                                                                                                                                                                                                                                                                                                                                                                        
8f3ddb2037f5e55b0f140288ffd0b3f4.torrent (25.23 KB, 下载次数: 0)

回复

使用道具 举报

小黑屋|百度云资源论坛 ( 闽ICP备16005822号-1 )

本网站所有资源来自网络,如无意中侵犯了您的权益,请发邮件至 [email protected],立即清除相关链接

GMT+8, 2022-8-10 04:40 , Processed in 0.076064 second(s), 17 queries .

Powered by Discuz! X3.4

© 2001-2017 Comsenz Inc.

快速回复 返回顶部 返回列表