百度云资源论坛

 找回密码
 立即注册
搜索
热搜: 百度云资源
开启左侧

冷血杀人王 Cauldron.of.Blood.1970.1080p.BluRay.x264.DTS-FGT 8.53GB

[复制链接]
百度云电影 发表于 2022-6-23 16:04:53 | 显示全部楼层 |阅读模式
冷血杀人王 Cauldron.of.Blood.1970.1080p.BluRay.x264.DTS-FGT 8.53GB                                                                                                                                                                                                                                                                                                                                                                                                                                                                                                                                        -->
帖子完整标题:冷血杀人王 Cauldron.of.Blood.1970.1080p.BluRay.x264.DTS-FGT 8.53GB



ae041a1ac8b11713131c01180068f3ca.jpg



◎译  名 冷血杀人王 / El coleccionista de cadáveres
◎片  名 Cauldron of Blood
◎年  代 1970
◎产  地 西班牙 / 英国 / 美国
◎类  别 恐怖
◎语  言 西班牙语
◎上映日期 1970-02-16
◎IMDb链接 
◎豆瓣链接 
◎片  长 Netherlands: 95 分钟
◎导  演 Santos Alcocer Santos Alcocer (id:1038834)
◎编  剧 约翰·梅尔森 John Melson (id:1039484)
       爱德华·曼 Edward Mann (id:1029369)
◎演  员 让-皮埃尔·奥蒙特 Jean-Pierre Aumont (id:1016735)
       波利斯·卡洛夫 Boris Karloff (id:1036575)
       韦薇卡·琳德佛斯 Viveca Lindfors (id:1014089)
        Al Pereira (id:1237236)
       Rubén Rojo Rubén Rojo (id:1146232)
       Milo Quesada Milo Quesada (id:1145087)
       罗森达·蒙特罗斯 Rosenda Monteros (id:1117943)
       曼纽尔·德·巴拉斯 Manuel de Blas (id:1001008)
       Ray Ellis Ray Ellis (id:1025681)
       José Antonio Rojo José Antonio Rojo (id:1295949)
       希尔·帕隆多 Gil Parrondo (id:1020352)
Video
ID                                       : 1
Format                                   : AVC
Format/Info                              : Advanced Video Codec
Format profile                           :
Format settings                          : CABAC / 4 Ref Frames
Format settings, CABAC                   : Yes
Format settings, Reference frames        : 4 frames
Codec ID                                 : V_MPEG4/ISO/AVC
Duration                                 : 1 h 39 min
Bit rate                                 : 11.5 Mb/s
Width                                    : 1 920 pixels
Height                                   : 1 080 pixels
Display aspect ratio                     : 16:9
Frame rate mode                          : Constant
Frame rate                               : 23.976 (24000/1001/189150) FPS
Color space                              : YUV
Chroma subsampling                       : 4:2:0
Bit depth                                : 8 bits
Scan type                                : Progressive
Bits/(Pixel*Frame)                       : 0.231
Stream size                              : 8.00 GiB (94%)
Writing library                          : x264 core 148 r2795M aaa9aa8
Encoding settings                        : cabac=1 / ref=4 / deblock=1:-2:-2 / analyse=0x3:0x113 / me=umh / subme=9 / psy=1 / psy_rd=1.00:0.15 / mixed_ref=1 / me_range=16 / chroma_me=1 / trellis=2 / 8x8dct=1 / cqm=0 / deadzone=21,11 / fast_pskip=1 / chroma_qp_offset=-3 / threads=24 / lookahead_threads=3 / sliced_threads=0 / nr=0 / decimate=1 / interlaced=0 / bluray_compat=0 / constrained_intra=0 / bframes=3 / b_pyramid=2 / b_adapt=1 / b_bias=0 / direct=3 / weightb=1 / open_gop=0 / weightp=2 / keyint=250 / keyint_min=25 / scenecut=40 / intra_refresh=0 / rc_lookahead=50 / rc=2pass / mbtree=1 / bitrate=11500 / ratetol=1.0 / qcomp=0.60 / qpmin=0 / qpmax=69 / qpstep=4 / cplxblur=20.0 / qblur=0.5 / vbv_maxrate=31250 / vbv_bufsize=31250 / nal_hrd=none / filler=0 / ip_ratio=1.40 / aq=1:1.00
Language                                 : English
Default                                  : Yes
Forced                                   : No

Audio
ID                                       : 2
ID in the original source medium         : 4352 (0x1100)
Format                                   : DTS
Format/Info                              : Digital Theater Systems
Codec ID                                 : A_DTS
Duration                                 : 1 h 39 min
Bit rate mode                            : Constant
Bit rate                                 : 768 kb/s
Channel(s)                               : 1 channel
Channel layout                           : C
Sampling rate                            : 48.0 kHz
Frame rate                               : 93.750 FPS (512 SPF)
Bit depth                                : 16 bits
Compression mode                         : Lossy
Stream size                              : 547 MiB (6%)
Title                                    : Mono
Language                                 : English
Default                                  : No
Forced                                   : No
Original source medium                   : Blu-ray

Menu
00:00:00.000                             : en:Chapter 01
00:16:03.671                             : en:Chapter 02
00:25:47.587                             : en:Chapter 03
00:32:13.640                             : en:Chapter 04
00:41:15.264                             : en:Chapter 05
00:50:23.895                             : en:Chapter 06
01:11:52.975                             : en:Chapter 07
01:26:50.246                             : en:Chapter 08
01:39:32.883                             : en:Chapter 09

b48a8c872e311d5d58c098b552488b20.png

[/url]



                                                                                                                                                                                                        
                                                                                                                                                                                                                                                                                                                                                                                                                                                                                                                                                                                                                                                                                                                                                                                                                                                        
f2aefc2cbb8c59bf9873605f3dafaa44.torrent (21.96 KB, 下载次数: 0)

回复

使用道具 举报

小黑屋|百度云资源论坛 ( 闽ICP备16005822号-1 )

本网站所有资源来自网络,如无意中侵犯了您的权益,请发邮件至 [email protected],立即清除相关链接

GMT+8, 2022-8-10 04:15 , Processed in 0.068182 second(s), 17 queries .

Powered by Discuz! X3.4

© 2001-2017 Comsenz Inc.

快速回复 返回顶部 返回列表