百度云资源论坛

 找回密码
 立即注册
搜索
热搜: 百度云资源
开启左侧

禁闭 Locked.In.2021.1080p.BluRay.x264-GETiT 6.35GB

[复制链接]
百度云电影 发表于 2022-6-23 16:04:55 | 显示全部楼层 |阅读模式
禁闭 Locked.In.2021.1080p.BluRay.x264-GETiT 6.35GB                                                                                                                                                                                                                                                                                                                                                                                                                                                                                                                                        -->
帖子完整标题:禁闭 Locked.In.2021.1080p.BluRay.x264-GETiT 6.35GB



bc6596b027e9ae369aa4a3404e13fdcb.jpg



◎标  题 禁闭
◎片  名 Locked In
◎年  代 2020
◎产  地 美国
◎语  言 英语
◎IMDb评分 4.2/10 (550人评价)
◎IMDb链接 
◎豆瓣链接 
◎导  演 Carlos Gutiérrez Carlos Gutiérrez
◎编  剧 Carlos Gutiérrez Carlos Gutiérrez
◎演  员 米娜·苏瓦丽 Mena Suvari
       杰夫·法赫 Jeff Fahey
       科斯塔斯·曼迪勒 Costas Mandylor
       布鲁诺·比齐尔 Bruno Bichir
       曼尼·佩雷斯 Manny Perez
       詹姆斯·比贝里 James Biberi
       Joanne Lamstein Joanne Lamstein
       贾斯珀·鲍力施 Jasper Polish

◎简  介
  A single mother must protect her daughter and herself during a heist gone wrong at a high-tech storage facility.
Video
ID                                       : 1
Format                                   : AVC
Format/Info                              : Advanced Video Codec
Format profile                           :
Format settings                          : CABAC / 5 Ref Frames
Format settings, CABAC                   : Yes
Format settings, Reference frames        : 5 frames
Codec ID                                 : V_MPEG4/ISO/AVC
Duration                                 : 1 h 30 min
Bit rate                                 : 6 771 kb/s
Width                                    : 1 920 pixels
Height                                   : 800 pixels
Display aspect ratio                     : 2.40:1
Frame rate mode                          : Constant
Frame rate                               : 23.976 (24000/1001/189150) FPS
Color space                              : YUV
Chroma subsampling                       : 4:2:0
Bit depth                                : 8 bits
Scan type                                : Progressive
Bits/(Pixel*Frame)                       : 0.184
Stream size                              : 4.27 GiB (67%)
Writing library                          : x264 core 164 r3095 baee400
Encoding settings                        : cabac=1 / ref=5 / deblock=1:-3:-3 / analyse=0x3:0x133 / me=umh / subme=9 / psy=1 / psy_rd=1.00:0.00 / mixed_ref=1 / me_range=16 / chroma_me=1 / trellis=2 / 8x8dct=1 / cqm=0 / deadzone=21,11 / fast_pskip=0 / chroma_qp_offset=-2 / threads=24 / lookahead_threads=2 / sliced_threads=0 / nr=0 / decimate=1 / interlaced=0 / bluray_compat=0 / constrained_intra=0 / bframes=3 / b_pyramid=2 / b_adapt=2 / b_bias=0 / direct=3 / weightb=1 / open_gop=0 / weightp=2 / keyint=250 / keyint_min=23 / scenecut=40 / intra_refresh=0 / rc_lookahead=60 / rc=crf / mbtree=1 / crf=17.0 / qcomp=0.60 / qpmin=0 / qpmax=69 / qpstep=4 / ip_ratio=1.40 / aq=3:1.00
Default                                  : Yes
Forced                                   : No
Color range                              : Limited
Matrix coefficients                      : BT.709

Audio
ID                                       : 2
Format                                   : DTS XLL
Format/Info                              : Digital Theater Systems
Commercial name                          : DTS-HD Master Audio
Codec ID                                 : A_DTS
Duration                                 : 1 h 30 min
Bit rate mode                            : Variable
Bit rate                                 : 3 269 kb/s
Channel(s)                               : 6 channels
Channel layout                           : C L R Ls Rs LFE
Sampling rate                            : 48.0 kHz
Frame rate                               : 93.750 FPS (512 SPF)
Bit depth                                : 24 bits
Compression mode                         : Lossless
Stream size                              : 2.06 GiB (33%)
Language                                 : English
Default                                  : Yes
Forced                                   : No

Text
ID                                       : 3
Format                                   : PGS
Muxing mode                              : zlib
Codec ID                                 : S_HDMV/PGS
Codec ID/Info                            : Picture based subtitle format used on BDs/HD-DVDs
Duration                                 : 1 h 26 min
Bit rate                                 : 30.7 kb/s
Count of elements                        : 1648
Stream size                              : 18.9 MiB (0%)
Language                                 : German
Default                                  : No
Forced                                   : No

Menu
00:00:00.000                             : 00:00:00.000
00:06:29.514                             : 00:06:29.514
00:12:55.316                             : 00:12:55.316
00:21:00.301                             : 00:21:00.301
00:29:50.497                             : 00:29:50.497
00:37:28.246                             : 00:37:28.246
00:44:23.828                             : 00:44:23.828
00:51:48.772                             : 00:51:48.772
00:59:45.290                             : 00:59:45.290
01:07:28.544                             : 01:07:28.544
01:15:44.540                             : 01:15:44.540
01:22:32.739                             : 01:22:32.739

74d38daffd5369db2aaaeae8adc7b39c.jpg





                                                                                                                                                                                                        
                                                                                                                                                                                                                                                                                                                                                                                                                                                                                                                                                                                                                                                                                                                                                                                                                                                        
7e478ad5b84278db1ab3c8af531dafa5.torrent (16.56 KB, 下载次数: 0)

回复

使用道具 举报

小黑屋|百度云资源论坛 ( 闽ICP备16005822号-1 )

本网站所有资源来自网络,如无意中侵犯了您的权益,请发邮件至 [email protected],立即清除相关链接

GMT+8, 2022-8-8 10:28 , Processed in 0.071799 second(s), 17 queries .

Powered by Discuz! X3.4

© 2001-2017 Comsenz Inc.

快速回复 返回顶部 返回列表