百度云资源论坛

 找回密码
 立即注册
搜索
热搜: 百度云资源
开启左侧

傅满州归来 The.Return.of.Dr.Fu.Manchu.1930.1080p.BluRay.x264.DTS-FGT 6.66GB

[复制链接]
百度云资源 发表于 2022-6-23 16:04:57 | 显示全部楼层 |阅读模式
傅满州归来 The.Return.of.Dr.Fu.Manchu.1930.1080p.BluRay.x264.DTS-FGT 6.66GB                                                                                                                                                                                                                                                                                                                                                                                                                                                                                                                                        -->
帖子完整标题:傅满州归来 The.Return.of.Dr.Fu.Manchu.1930.1080p.BluRay.x264.DTS-FGT 6.66GB



bb0572ad3b48270fb302ca866f10e110.jpg



◎译  名 傅满州归来 / New Adventures of Dr. Fu Manchu
◎片  名 The Return of Dr. Fu Manchu
◎年  代 1930
◎产  地 美国
◎上映日期 1930-05-02
◎IMDb链接 
◎豆瓣链接 
◎导  演 罗兰·V·李 Rowland V. Lee (id:1051070)
◎编  剧 萨克斯·儒默 Sax Rohmer (id:1008409)
       弗洛伦斯·赖尔森 Florence Ryerson (id:1051429)
       劳埃德·科里根 Lloyd Corrigan (id:1028249)
◎演  员 O·P·赫吉 O.P. Heggie (id:1101227)
       奥拉夫·许滕 Olaf Hytten (id:1106567)
       Tetsu Komai Tetsu Komai (id:1108125)
       Shayle Gardner Shayle Gardner (id:1099842)
       尼尔·哈弥尔顿 Neil Hamilton (id:1095596)
       Toyo Fujita Toyo Fujita (id:1090303)
       比尔·埃利奥特 Bill Elliott (id:1085321)
       David Dunbar David Dunbar (id:1084094)
       Margaret Fealy Margaret Fealy (id:1079563)
       Nora Cecil Nora Cecil (id:1074670)
       Ambrose Barker Ambrose Barker (id:1066546)
       Will Stanton Will Stanton (id:1051697)
       华纳·欧兰德 Warner Oland (id:1027993)
       琪恩·亚瑟 Jean Arthur (id:1027925)
       威廉姆斯·奥斯汀 William Austin (id:1019498)
       Evelyn Selbie Evelyn Selbie (id:1144207)
       B.P. Schulberg B.P. Schulberg (id:1016909)
       罗兰·V·李 Rowland V. Lee (id:1051070)
       阿尔奇·斯陶特 Archie Stout (id:1003646)

◎简  介
  The villainous master criminal Dr. Fu Manchu sets out to destroy the people he holds responsible for the death of his family.
Video
ID                                       : 1
Format                                   : AVC
Format/Info                              : Advanced Video Codec
Format profile                           :
Format settings                          : CABAC / 4 Ref Frames
Format settings, CABAC                   : Yes
Format settings, Reference frames        : 4 frames
Codec ID                                 : V_MPEG4/ISO/AVC
Duration                                 : 1 h 13 min
Bit rate                                 : 11.5 Mb/s
Width                                    : 1 296 pixels
Height                                   : 1 080 pixels
Display aspect ratio                     : 1.200
Frame rate mode                          : Constant
Frame rate                               : 24.000 FPS
Color space                              : YUV
Chroma subsampling                       : 4:2:0
Bit depth                                : 8 bits
Scan type                                : Progressive
Bits/(Pixel*Frame)                       : 0.342
Stream size                              : 5.88 GiB (88%)
Writing library                          : x264 core 148 r2795M aaa9aa8
Encoding settings                        : cabac=1 / ref=4 / deblock=1:-2:-2 / analyse=0x3:0x113 / me=umh / subme=9 / psy=1 / psy_rd=1.00:0.15 / mixed_ref=1 / me_range=16 / chroma_me=1 / trellis=2 / 8x8dct=1 / cqm=0 / deadzone=21,11 / fast_pskip=1 / chroma_qp_offset=-3 / threads=24 / lookahead_threads=3 / sliced_threads=0 / nr=0 / decimate=1 / interlaced=0 / bluray_compat=0 / constrained_intra=0 / bframes=3 / b_pyramid=2 / b_adapt=1 / b_bias=0 / direct=3 / weightb=1 / open_gop=0 / weightp=2 / keyint=250 / keyint_min=25 / scenecut=40 / intra_refresh=0 / rc_lookahead=50 / rc=2pass / mbtree=1 / bitrate=11500 / ratetol=1.0 / qcomp=0.60 / qpmin=0 / qpmax=69 / qpstep=4 / cplxblur=20.0 / qblur=0.5 / vbv_maxrate=31250 / vbv_bufsize=31250 / nal_hrd=none / filler=0 / ip_ratio=1.40 / aq=1:1.00
Language                                 : English
Default                                  : Yes
Forced                                   : No

Audio
ID                                       : 2
Format                                   : DTS
Format/Info                              : Digital Theater Systems
Codec ID                                 : A_DTS
Duration                                 : 1 h 13 min
Bit rate mode                            : Constant
Bit rate                                 : 1 509 kb/s
Channel(s)                               : 2 channels
Channel layout                           : L R
Sampling rate                            : 48.0 kHz
Frame rate                               : 93.750 FPS (512 SPF)
Bit depth                                : 16 bits
Compression mode                         : Lossy
Stream size                              : 790 MiB (12%)
Language                                 : English
Default                                  : Yes
Forced                                   : No

Text #1
ID                                       : 3
Format                                   : UTF-8
Codec ID                                 : S_TEXT/UTF8
Codec ID/Info                            : UTF-8 Plain Text
Duration                                 : 1 h 11 min
Bit rate                                 : 57 b/s
Count of elements                        : 969
Stream size                              : 30.0 KiB (0%)
Language                                 : English
Default                                  : Yes
Forced                                   : No

Text #2
ID                                       : 4
Format                                   : UTF-8
Codec ID                                 : S_TEXT/UTF8
Codec ID/Info                            : UTF-8 Plain Text
Duration                                 : 1 h 12 min
Bit rate                                 : 59 b/s
Count of elements                        : 1053
Stream size                              : 31.7 KiB (0%)
Title                                    : SDH
Language                                 : English
Default                                  : No
Forced                                   : No

Menu
00:00:00.000                             : en:Chapter 1
00:09:21.990                             : en:Chapter 2
00:19:18.198                             : en:Chapter 3
00:29:41.282                             : en:Chapter 4
00:36:21.365                             : en:Chapter 5
00:45:18.615                             : en:Chapter 6
00:56:33.782                             : en:Chapter 7
01:05:13.907                             : en:Chapter 8

4f232952f3244609a628ed6a29e0d4f1.png

[/url]289c8d08e1f754f44b5c0f82ea2f98c1.png

[/url]207fa500c61f300e9740e3cd3e25ad1e.png

[/url]



                                                                                                                                                                                                        
                                                                                                                                                                                                                                                                                                                                                                                                                                                                                                                                                                                                                                                                                                                                                                                                                                                        
56f315172accea67a1132a2508891c08.torrent (17.27 KB, 下载次数: 0)

回复

使用道具 举报

小黑屋|百度云资源论坛 ( 闽ICP备16005822号-1 )

本网站所有资源来自网络,如无意中侵犯了您的权益,请发邮件至 [email protected],立即清除相关链接

GMT+8, 2022-8-10 03:52 , Processed in 0.074154 second(s), 17 queries .

Powered by Discuz! X3.4

© 2001-2017 Comsenz Inc.

快速回复 返回顶部 返回列表