百度云资源论坛

 找回密码
 立即注册
搜索
热搜: 百度云资源
开启左侧

神秘的傅满州 The.Mysterious.Dr.Fu.Manchu.1929.1080p.BluRay.x264.DTS-FGT 7.41GB . ...

[复制链接]
百度云电影 发表于 2022-6-23 16:04:59 | 显示全部楼层 |阅读模式
神秘的傅满州 The.Mysterious.Dr.Fu.Manchu.1929.1080p.BluRay.x264.DTS-FGT 7.41GB                                                                                                                                                                                                                                                                                                                                                                                                                                                                                                                                        -->
帖子完整标题:神秘的傅满州 The.Mysterious.Dr.Fu.Manchu.1929.1080p.BluRay.x264.DTS-FGT 7.41GB



1c071dd78d3c9c876add841e822bfa31.jpg



◎译  名 神秘的傅满州
◎片  名 The Mysterious Dr. Fu Manchu
◎年  代 1929
◎产  地 美国
◎类  别 惊悚
◎语  言 英语
◎上映日期 1929
◎IMDb链接 
◎豆瓣链接 
◎片  长 80 分钟
◎导  演 罗兰·V·李 Rowland V. Lee (id:1051070)
◎编  剧 劳埃德·科里根 Lloyd Corrigan (id:1028249)
       小乔治·马里昂 George Marion Jr. (id:1051822)
       弗洛伦斯·赖尔森 Florence Ryerson (id:1051429)
       萨克斯·儒默 Sax Rohmer (id:1008409)
       约瑟夫·L·曼凯维奇 Joseph L. Mankiewicz (id:1007111)
◎演  员 Claude King Claude King (id:1103508)
       塔利·马绍尔 Tully Marshall (id:1114788)
       诺贝·约翰逊 Noble Johnson (id:1109498)
       Donald MacKenzie Donald MacKenzie (id:1003717)
       Evelyn Selbie Evelyn Selbie (id:1144207)
       Charles Stevens Charles Stevens (id:1154142)
       Charles A. Stevenson Charles A. Stevenson (id:1156253)
       O·P·赫吉 O.P. Heggie (id:1101227)
       尼尔·哈弥尔顿 Neil Hamilton (id:1095596)
       Lawford Davidson Lawford Davidson (id:1089935)
       Chappell Dossett Chappell Dossett (id:1082561)
       Charles Giblyn Charles Giblyn (id:1052427)
       华纳·欧兰德 Warner Oland (id:1027993)
       琪恩·亚瑟 Jean Arthur (id:1027925)
       威廉姆斯·奥斯汀 William Austin (id:1019498)
       Laska Winters Laska Winters (id:1167128)
       Harry Fischbeck Harry Fischbeck (id:1021233)
Video
ID                                       : 1
Format                                   : AVC
Format/Info                              : Advanced Video Codec
Format profile                           :
Format settings                          : CABAC / 4 Ref Frames
Format settings, CABAC                   : Yes
Format settings, Reference frames        : 4 frames
Codec ID                                 : V_MPEG4/ISO/AVC
Duration                                 : 1 h 21 min
Bit rate                                 : 11.5 Mb/s
Width                                    : 1 296 pixels
Height                                   : 1 080 pixels
Display aspect ratio                     : 1.200
Frame rate mode                          : Constant
Frame rate                               : 24.000 FPS
Color space                              : YUV
Chroma subsampling                       : 4:2:0
Bit depth                                : 8 bits
Scan type                                : Progressive
Bits/(Pixel*Frame)                       : 0.342
Stream size                              : 6.55 GiB (88%)
Writing library                          : x264 core 148 r2795M aaa9aa8
Encoding settings                        : cabac=1 / ref=4 / deblock=1:-2:-2 / analyse=0x3:0x113 / me=umh / subme=9 / psy=1 / psy_rd=1.00:0.15 / mixed_ref=1 / me_range=16 / chroma_me=1 / trellis=2 / 8x8dct=1 / cqm=0 / deadzone=21,11 / fast_pskip=1 / chroma_qp_offset=-3 / threads=24 / lookahead_threads=3 / sliced_threads=0 / nr=0 / decimate=1 / interlaced=0 / bluray_compat=0 / constrained_intra=0 / bframes=3 / b_pyramid=2 / b_adapt=1 / b_bias=0 / direct=3 / weightb=1 / open_gop=0 / weightp=2 / keyint=250 / keyint_min=25 / scenecut=40 / intra_refresh=0 / rc_lookahead=50 / rc=2pass / mbtree=1 / bitrate=11500 / ratetol=1.0 / qcomp=0.60 / qpmin=0 / qpmax=69 / qpstep=4 / cplxblur=20.0 / qblur=0.5 / vbv_maxrate=31250 / vbv_bufsize=31250 / nal_hrd=none / filler=0 / ip_ratio=1.40 / aq=1:1.00
Language                                 : English
Default                                  : Yes
Forced                                   : No

Audio
ID                                       : 2
Format                                   : DTS
Format/Info                              : Digital Theater Systems
Codec ID                                 : A_DTS
Duration                                 : 1 h 21 min
Bit rate mode                            : Constant
Bit rate                                 : 1 509 kb/s
Channel(s)                               : 2 channels
Channel layout                           : L R
Sampling rate                            : 48.0 kHz
Frame rate                               : 93.750 FPS (512 SPF)
Bit depth                                : 16 bits
Compression mode                         : Lossy
Stream size                              : 880 MiB (12%)
Language                                 : English
Default                                  : Yes
Forced                                   : No

Text #1
ID                                       : 3
Format                                   : UTF-8
Codec ID                                 : S_TEXT/UTF8
Codec ID/Info                            : UTF-8 Plain Text
Duration                                 : 1 h 18 min
Bit rate                                 : 51 b/s
Count of elements                        : 1181
Stream size                              : 29.6 KiB (0%)
Language                                 : English
Default                                  : Yes
Forced                                   : No

Text #2
ID                                       : 4
Format                                   : UTF-8
Codec ID                                 : S_TEXT/UTF8
Codec ID/Info                            : UTF-8 Plain Text
Duration                                 : 1 h 21 min
Bit rate                                 : 54 b/s
Count of elements                        : 1327
Stream size                              : 32.6 KiB (0%)
Title                                    : SDH
Language                                 : English
Default                                  : No
Forced                                   : No

Menu
00:00:00.000                             : en:Chapter 1
00:08:24.698                             : en:Chapter 2
00:15:39.615                             : en:Chapter 3
00:28:21.948                             : en:Chapter 4
00:37:19.032                             : en:Chapter 5
00:46:46.865                             : en:Chapter 6
00:59:36.073                             : en:Chapter 7
01:13:18.157                             : en:Chapter 8

92f0f0cbc9e276bdd422c3567e16e865.png

[/url]1ba590e3e5be11c963cb3199aa5a9163.png

[/url]dac3a82e9206e75ac82f5aee467f46cb.png

[/url]



                                                                                                                                                                                                        
                                                                                                                                                                                                                                                                                                                                                                                                                                                                                                                                                                                                                                                                                                                                                                                                                                                        
0c8936858449fe450b6d2ff4887b158e.torrent (19.17 KB, 下载次数: 0)

回复

使用道具 举报

小黑屋|百度云资源论坛 ( 闽ICP备16005822号-1 )

本网站所有资源来自网络,如无意中侵犯了您的权益,请发邮件至 [email protected],立即清除相关链接

GMT+8, 2022-8-8 10:08 , Processed in 0.072637 second(s), 17 queries .

Powered by Discuz! X3.4

© 2001-2017 Comsenz Inc.

快速回复 返回顶部 返回列表